Ивановский Торрент трекер
Яндекс.Погода
 

[Цитировать]
HUNTER

Как сделать баннер--

  • Год выпуска: 2014
  • Страна: Россия
  • Тематика: Создание баннеров, Photoshop
  • Тип материала: Обучающее видео
  • Продолжительность: 02:10:46
  • Автор: Сергей Буйбаров
  • Язык: Русский-Описание:
    Видеокурс «Как сделать баннер» научит Вас создавать красивые и качественные баннеры разных форматов.

    Содержание:


    — Что такое баннер и какую пользу от него можно получить
    — Как работают программы для создания баннеров
    — Как сделать статический джипег (. jpeg) баннер
    — Как сделать анимационный гиф (. gif) баннер
    — Как сделать анимационный флеш (. swf) баннер
    --
  • Качество: PCRec
  • Формат: MP4
  • Видео кодек: AVC
  • Аудио кодек: AAC-LC
  • Видео: avc1, 1920x1080, 240 kbps, 30 fps
  • Аудио: AAC-LC, 44.1 KHz, 2 ch stereo, 160 Kbps
--

MediaInfo


Код: copyText_writeLink('this.parentNode.parentNode.nextSibling.nextSibling');
Полное имя                               : D:\Мастер-Класс\Как сделать баннер (2014)\AutoPlay\Videos\Flash.mp4
Формат                                   : MPEG-4
Профиль формата                          : Base Media / Version 2
Идентификатор кодека                     : mp42
Размер файла                             : 136 MiB
Продолжительность                        : 46mn 55s
Режим общего битрейта                    : Variable
Общий поток                              : 405 Kbps
Название фильма                          : falsh
Дата кодирования                         : UTC 2014-10-06 18:05:30
Дата пометки                             : UTC 2014-10-06 18:20:15
Программа кодирования                    : HandBrake 0.9.8 2012071700
Video
Идентификатор                            : 1
Формат                                   : AVC
Формат/Информация                        : Advanced Video Codec
Профиль формата                          : Main@L4.0
Параметр CABAC формата                   : Yes
Параметр ReFrames формата                : 4 frames
Идентификатор кодека                     : avc1
Идентификатор кодека/Информация          : Advanced Video Coding
Продолжительность                        : 46mn 55s
Битрейт                                  : 240 Kbps
Ширина                                   : 1 920 pixels
Высота                                   : 1 080 pixels
Соотношение сторон                       : 16:9
Режим частоты кадров                     : Constant
Частота кадров                           : 30.000 fps
Цветовое пространство                    : YUV
Субдискретизация насыщенности            : 4:2:0
Битовая глубина                          : 8 bits
Тип развёртки                            : Progressive
Бит/(Пиксели*Кадры)                      : 0.004
Размер потока                            : 80.7 MiB (59%)
Библиотека кодирования                   : x264 core 120
Настройки программы                      : cabac=1 / ref=1 / deblock=1:0:0 / analyse=0x1:0x111 / me=hex / subme=2 / psy=1 / psy_rd=1.00:0.00 / mixed_ref=0 / me_range=16 / chroma_me=1 / trellis=0 / 8x8dct=0 / cqm=0 / deadzone=21,11 / fast_pskip=1 / chroma_qp_offset=0 / threads=9 / sliced_threads=0 / nr=0 / decimate=1 / interlaced=0 / bluray_compat=0 / constrained_intra=0 / bframes=3 / b_pyramid=2 / b_adapt=1 / b_bias=0 / direct=1 / weightb=1 / open_gop=0 / weightp=1 / keyint=300 / keyint_min=30 / scenecut=40 / intra_refresh=0 / rc_lookahead=10 / rc=crf / mbtree=1 / crf=20.0 / qcomp=0.60 / qpmin=3 / qpmax=69 / qpstep=4 / ip_ratio=1.40 / aq=1:1.00
Дата кодирования                         : UTC 2014-10-06 18:05:30
Дата пометки                             : UTC 2014-10-06 18:20:12
Основные цвета                           : BT.709
Характеристики трансфера                 : BT.709
Коэффициенты матрицы                     : BT.709
Audio
Идентификатор                            : 2
Формат                                   : AAC
Формат/Информация                        : Advanced Audio Codec
Профиль формата                          : LC
Идентификатор кодека                     : 40
Продолжительность                        : 46mn 55s
Вид битрейта                             : Variable
Битрейт                                  : 160 Kbps
Максимальный битрейт                     : 292 Kbps
Каналы                                   : 2 channels
Расположение каналов                     : Front: L R
Частота                                  : 44.1 KHz
Метод сжатия                             : Lossy
Размер потока                            : 53.7 MiB (39%)
Язык                                     : English
Дата кодирования                         : UTC 2014-10-06 18:05:30
Дата пометки                             : UTC 2014-10-06 18:20:11

Скриншоты


Показать сообщения:    

Текущее время: 20-Сен 06:41

Часовой пояс: UTC - 1


Вы не можете начинать темы
Вы не можете отвечать на сообщения
Вы не можете редактировать свои сообщения
Вы не можете удалять свои сообщения
Вы не можете голосовать в опросах
Вы не можете прикреплять файлы к сообщениям
Вы не можете скачивать файлы

!ВНИМАНИЕ!
Сайт не предоставляет электронные версии произведений, а занимается лишь коллекционированием и каталогизацией ссылок, присылаемых и публикуемых на форуме нашими читателями. Если вы являетесь правообладателем какого-либо представленного материала и не желаете, чтобы ссылка на него находилась в нашем каталоге, свяжитесь с нами, и мы незамедлительно удалим ее. Файлы для обмена на трекере предоставлены пользователями сайта, и администрация не несет ответственности за их содержание. Просьба не заливать файлы, защищенные авторскими правами, а также файлы нелегального содержания!