Важное объявление!
У Нас Все раздачи мультитрекерные, при нуле пиров в релизах, можете смело вставать на закачку!
 
Автор Сообщение

HUNTER

Стаж:
4 года 10 месяцев
Сообщений:
65576

Репутация: 101

[+] [-]
Вне форума [Профиль] [ЛС]

-Как раскрутить блог! Видеокурс по продвижению блогов и сайтов -

Год выпуска: 2012
Страна:
Сайт производителя: http://asbseo.ru
Тематика: Раскрутка сайтов и блогов
Тип материала: обучающие видео-Продолжительность: 04:46:41
Автор: А. Бобрин-Язык: Русский
Субтитры: отсутствуют-Описание: Обучающий видеокурс по раскрутке блога в интернете. Из видеокурса Вы узнаете как правильно вести блог, как настроить его и оптимизировать. Вы научитесь продвигать блог в поисковых системах, получать трафик из других источников. Данный видеокурс поможет Вам понять как сделать блог популярным и посещаемым.
Посмотрев видеокурс Вы получите готовый план раскрутки Вашего интернет ресурса!-Качество: DVDRip
Формат: wmv
Видео кодек: WMV3
Аудио кодек: WMA
Видео: Windows Media Video 9 1280x720 15fps 245kbps
Аудио: WMA 2 44100Hz mono 48kbps [Raw Audio 0]-

Содержание

В видеокурсе представлена информация по:
- настройке блога;
- внутренней оптимизации блога;
- выбору ключевых слов и написанию релевантных постов;
- анализу сайтов конкурентов;
- оптимизации изображений;
- внешней оптимизации сайтов;
- правильной покупке ссылок;
- продвижении статьями и многое другое!

MediaInfo

Код: copyText_writeLink('this.parentNode.parentNode.nextSibling.nextSibling'); General
Complete name : D:\обучение 25,12\Новая папка\Видеокурс_Как раскрутить блог\AutoPlay\Videos\Битые ссылки.wmv
Format : Windows Media
File size : 19.2 MiB
Duration : 8mn 41s
Overall bit rate mode : Variable
Overall bit rate : 308 Kbps
Maximum Overall bit rate : 2 315 Kbps
Movie name : Безымянный
Encoded date : UTC 2012-08-10 16:08:00.679
Video
ID : 2
Format : VC-1
Format profile : MP@HL
Codec ID : WMV3
Codec ID/Info : Windows Media Video 9
Codec ID/Hint : WMV3
Description of the codec : Windows Media Video 9
Duration : 8mn 41s
Bit rate mode : Variable
Bit rate : 245 Kbps
Width : 1 280 pixels
Height : 720 pixels
Display aspect ratio : 16:9
Frame rate : 15.000 fps
Bit depth : 8 bits
Scan type : Progressive
Compression mode : Lossy
Bits/(Pixel*Frame) : 0.018
Stream size : 15.3 MiB (80%)
Language : English (US)
Audio
ID : 1
Format : WMA
Format version : Version 2
Codec ID : 161
Codec ID/Info : Windows Media Audio
Description of the codec : Windows Media Audio 9.2 - 48 kbps, 44 kHz, mono (A/V) 1-pass CBR
Duration : 8mn 41s
Bit rate mode : Constant
Bit rate : 48.0 Kbps
Channel(s) : 1 channel
Sampling rate : 44.1 KHz
Bit depth : 16 bits
Stream size : 2.99 MiB (16%)
Language : English (US)
- -

_________________
Показать сообщения:    

Текущее время: Сегодня 12:54

Часовой пояс: GMT



Вы не можете начинать темы
Вы не можете отвечать на сообщения
Вы не можете редактировать свои сообщения
Вы не можете удалять свои сообщения
Вы не можете голосовать в опросах
Вы не можете прикреплять файлы к сообщениям
Вы не можете скачивать файлы