Важное объявление!
У Нас Все раздачи мультитрекерные, при нуле пиров в релизах, можете смело вставать на закачку!
 
Автор Сообщение

HUNTER

Стаж:
4 года 7 месяцев
Сообщений:
61500

Репутация: 101

[+] [-]
Вне форума [Профиль] [ЛС]

Как разговорить молчуна-

Год выпуска: 2008
Страна: Россия
Сайт производителя: отсутствуeт
Тематика: Обучающее видео для родителей
Тип материала: Обучающее видео для родителей-Продолжительность: 00:48:13
Автор: Игорь Пелинский
В ролях: Детский логопед и воспитанники семейного центра" Ученый кот" (Москва)-Язык: Русский
Субтитры: отсутствуют-Описание: Этот фильм предназначен для самостоятельных занятий мамы со своим малышом и служит методическим пособием.
Вам будет интересно узнать, как можно разговорить даже самого упрямого «молчуна», и какие существуют «хитрости» для того, чтобы увлечь ребенка занятиями и играми.
-Качество: DVDRip
Формат: AVI
Видео кодек: DivX
Аудио кодек: MP3
Видео: 640x480 (1.33:1), 25 fps, DivX Codec 4.x ~1699 kbps avg, 0.22 bit/pixel
Аудио: 48 kHz, MPEG Layer 3, 2 ch, ~160.00 kbps avg-

Доп. информация

Опытный логопед научит вас, как надо заниматься развитием речи с «молчунами», какие существуют выбрать методы с ними и как можно обойти «подводные камни».
Фильм уделяет много внимания развитию пассивного и активного словаря малышей, формированию фразовой речи. В нем представлен обширный практический материал, рассказывается о нормах развития детской речи и вариантах логопедической помощи. Предлагаемый фильм будет также полезен и интересен воспитателям детских учреждений, гувернерам и няням.

MediaInfo

Код: copyText_writeLink('this.parentNode.parentNode.nextSibling.nextSibling'); General
Complete name : E:\Обучение\kak_razgovorit_molchuna.avi
Format : AVI
Format/Info : Audio Video Interleave
File size : 646 MiB
Duration : 48mn 13s
Overall bit rate : 1 873 Kbps
Writing application : Lavf51.12.1
Video
ID : 0
Format : MPEG-4 Visual
Format profile : Simple@L1
Format settings, BVOP : No
Format settings, QPel : No
Format settings, GMC : No warppoints
Format settings, Matrix : Default (H.263)
Codec ID : divx
Codec ID/Info : Mainly used by Google
Codec ID/Hint : DivX
Duration : 48mn 13s
Bit rate : 1 700 Kbps
Width : 640 pixels
Height : 480 pixels
Display aspect ratio : 4:3
Frame rate : 25.000 fps
Color space : YUV
Chroma subsampling : 4:2:0
Bit depth : 8 bits
Scan type : Progressive
Compression mode : Lossy
Bits/(Pixel*Frame) : 0.221
Stream size : 586 MiB (91%)
Writing library : Lavc51.40.4
Audio
ID : 1
Format : MPEG Audio
Format version : Version 1
Format profile : Layer 3
Mode : Joint stereo
Mode extension : MS Stereo
Codec ID : 55
Codec ID/Hint : MP3
Duration : 48mn 13s
Bit rate mode : Constant
Bit rate : 160 Kbps
Channel(s) : 2 channels
Sampling rate : 48.0 KHz
Compression mode : Lossy
Stream size : 55.2 MiB (9%)
Alignment : Aligned on interleaves
Interleave, duration : 24 ms (0.60 video frame)
- -

_________________
Показать сообщения:    

Текущее время: Сегодня 22:10

Часовой пояс: GMT



Вы не можете начинать темы
Вы не можете отвечать на сообщения
Вы не можете редактировать свои сообщения
Вы не можете удалять свои сообщения
Вы не можете голосовать в опросах
Вы не можете прикреплять файлы к сообщениям
Вы не можете скачивать файлы
Наши партнеры: интернет магазин Ивановского трикотажа textilla.ru