Важное объявление!
У Нас Все раздачи мультитрекерные, при нуле пиров в релизах, можете смело вставать на закачку!
 
Автор Сообщение

HUNTER

Стаж:
4 года 6 месяцев
Сообщений:
61029

Репутация: 101

[+] [-]
Вне форума [Профиль] [ЛС]

Как продать жуткое поместье / The Selling
Страна: США
Жанр: комедия
Год выпуска: 2011
Продолжительность: 01:25:53
Перевод: Профессиональный (многоголосый закадровый)
Cубтитры: нет
Оригинальная аудиодорожка: нет
Режиссер: Эмили Лу
В ролях: Гэбриел Диани, Джанет Вэрни, Джонатан Клейн, Этта Дивайн, Нэнси Ленехан, Бэрри Боствик, Саймон Хелберг, Алина Фелан, Жослин Таун, Гарри Гронер
Описание: Ричард Скэрри — агент по операциям с недвижимостью, честность которого постоянно вредит ему. Он инвестирует в дом, чтобы добыть деньги для проектов его матери, но вскоре обнаруживает, что в нем процветает паранормальщина.
Сэмпл: http://multi-up.com/962493

Тип релиза: HDTV 1080i
Контейнер: MKV
Видео: MPEG4 (H264) 1920x1080 (16:9) 25fps 4 969 Kbps
Аудио: AC3 2.0 ch 48 kHz 16 bit 448 Kbps

MediaInfo

General
Unique ID : 204722297894279936533461711614989507186 (0x9A041493C5DDE2B6AC66C72AE3531A72)
Complete name : D:\Kak.prodat.jutkoe.pomest'e.2011.HDTV.1080i.mkv
Format : Matroska
Format version : Version 4 / Version 2
File size : 3.32 GiB
Duration : 1h 25mn
Overall bit rate : 5 527 Kbps
Movie name : 26.03.2014 SharkN73
Encoded date : UTC 2014-03-26 16:18:11
Writing application : mkvmerge v6.8.0 ('Theme for Great Cities') 64bit built on Mar 2 2014 21:34:26
Writing library : libebml v1.3.0 + libmatroska v1.4.1
Video
ID : 1
Format : AVC
Format/Info : Advanced Video Codec
Format profile : High@L4.0
Format settings, CABAC : Yes
Format settings, ReFrames : 3 frames
Codec ID : V_MPEG4/ISO/AVC
Duration : 1h 25mn
Bit rate : 4 969 Kbps
Width : 1 920 pixels
Height : 1 080 pixels
Display aspect ratio : 16:9
Frame rate mode : Constant
Frame rate : 25.000 fps
Standard : Component
Color space : YUV
Chroma subsampling : 4:2:0
Bit depth : 8 bits
Scan type : Interlaced
Scan order : Top Field First
Bits/(Pixel*Frame) : 0.096
Stream size : 2.98 GiB (90%)
Language : English
Default : Yes
Forced : No
Color primaries : BT.709
Transfer characteristics : BT.709
Matrix coefficients : BT.709
Audio
ID : 2
Format : AC-3
Format/Info : Audio Coding 3
Mode extension : CM (complete main)
Format settings, Endianness : Big
Codec ID : A_AC3
Duration : 1h 25mn
Bit rate mode : Constant
Bit rate : 448 Kbps
Channel(s) : 2 channels
Channel positions : Front: L R
Sampling rate : 48.0 KHz
Bit depth : 16 bits
Compression mode : Lossy
Delay relative to video : 6ms
Stream size : 275 MiB (8%)
Language : Russian
Default : Yes
Forced : No

Скриншоты


_________________
Показать сообщения:    

Текущее время: Сегодня 01:17

Часовой пояс: GMT



Вы не можете начинать темы
Вы не можете отвечать на сообщения
Вы не можете редактировать свои сообщения
Вы не можете удалять свои сообщения
Вы не можете голосовать в опросах
Вы не можете прикреплять файлы к сообщениям
Вы не можете скачивать файлы
Наши партнеры: интернет магазин Ивановского трикотажа textilla.ru