Важное объявление!
У Нас Все раздачи мультитрекерные, при нуле пиров в релизах, можете смело вставать на закачку!
 
Автор Сообщение

HUNTER

Стаж:
4 года 7 месяцев
Сообщений:
61605

Репутация: 101

[+] [-]
Вне форума [Профиль] [ЛС]

Как проверить больничный лист-Год выпуска: 2013
Страна: Россия
Тематика: Бухгалтерия, налоги
Тип материала: Видеосеминар-Продолжительность: 00:15:01
Автор: Горбик Юлия Владимировна-Язык: Русский
Субтитры: Отсутствуют-Описание: На семинаре рассматриваются признаки «липового» больничного и ответственность за его предоставление работодателю.
Лектор: Горбик Юлия Владимировна - редактор-эксперт журнала «Время Бухгалтера», автор сборников «Документооборот в бухгалтерии в связи с новым Федеральным законом «О бухучете»», «НДС. Последние изменения», «Основные средства и МПЗ» и других.-Качество: WEBRip
Формат: FLV
Видео кодек: H.264
Аудио кодек: AAC
Видео: H264 - MPEG-4 AVC, 720x576, (5:4), 1500 kbps, 30 fps
Аудио: MPEG AAC Audio, 44100 Hz, mono-

План видеосеминара:

1. Признаки поддельного больничного листа
2. Проверка законности выдачи больничного листа
- Запрос в больницу
- Запрос в ФСС
- Самостоятельная проверка работодателем
3. Ответственность предусмотрена за подделку листка нетрудоспособности
- Дисциплинарная ответственность
- Материальная ответственность
- Уголовная ответственность

MediaInfo

Код: copyText_writeLink('this.parentNode.parentNode.nextSibling.nextSibling'); General
Complete name : E:\Уроки\Как проверить больничный лист.flv
Format : Flash Video
File size : 165 MiB
Duration : 15mn 1s
Overall bit rate : 1 538 Kbps
Video
Format : AVC
Format/Info : Advanced Video Codec
Format profile : [url=mailto:Main@L3.1]Main@L3.1[/url]
Format settings, CABAC : No
Format settings, ReFrames : 2 frames
Format settings, GOP : M=1, N=12
Codec ID : 7
Duration : 15mn 1s
Bit rate : 1 500 Kbps
Width : 720 pixels
Height : 576 pixels
Display aspect ratio : 5:4
Frame rate mode : Constant
Frame rate : 30.000 fps
Standard : PAL
Color space : YUV
Chroma subsampling : 4:2:0
Bit depth : 8 bits
Scan type : Progressive
Bits/(Pixel*Frame) : 0.121
Stream size : 161 MiB (98%)
Writing library : x264 core 77
Encoding settings : cabac=0 / ref=1 / deblock=1:0:0 / analyse=0x1:0x11 / me=hex / subme=5 / psy=1 / psy_rd=0.0:0.0 / mixed_ref=0 / me_range=16 / chroma_me=1 / trellis=0 / 8x8dct=0 / cqm=0 / deadzone=21,11 / chroma_qp_offset=0 / threads=2 / nr=0 / decimate=1 / mbaff=0 / constrained_intra=0 / bframes=2 / b_pyramid=0 / b_adapt=1 / b_bias=0 / direct=1 / wpredb=0 / keyint=12 / keyint_min=7 / scenecut=40 / rc_lookahead=12 / rc=abr / mbtree=1 / bitrate=1500 / ratetol=1.0 / qcomp=0.60 / qpmin=10 / qpmax=51 / qpstep=4 / ip_ratio=1.41 / aq=1:1.00
Audio
Format : AAC
Format/Info : Advanced Audio Codec
Format profile : LC
Codec ID : 10
Duration : 15mn 1s
Bit rate : 125 Kbps
Channel(s) : 1 channel
Channel positions : Front: C
Sampling rate : 44.1 KHz
Compression mode : Lossy
Delay relative to video : 33ms
Stream size : 13.4 MiB (8%)

Скриншоты

-

_________________
Показать сообщения:    

Текущее время: Сегодня 02:47

Часовой пояс: GMT



Вы не можете начинать темы
Вы не можете отвечать на сообщения
Вы не можете редактировать свои сообщения
Вы не можете удалять свои сообщения
Вы не можете голосовать в опросах
Вы не можете прикреплять файлы к сообщениям
Вы не можете скачивать файлы
Наши партнеры: интернет магазин Ивановского трикотажа textilla.ru