Ивановский Торрент трекер
Яндекс.Погода
 

[Цитировать]
HUNTER

-Как приручить дракона 2 / How to Train Your Dragon 2 Страна: США
Студия: DreamWorks Animation, Mad Hatter Entertainment
Жанр: Мультфильм, фэнтези, комедия, приключения, семейный
Год выпуска: 2014
Продолжительность: 01:41:55-Перевод: Профессиональный (полное дублирование), BD EUR
Оригинальная аудиодорожка: английский
Cубтитры: русские, украинские, английские
Режиссер: Дин ДеБлуа / Dean DeBlois
В ролях: Джей Барушель, Кейт Бланшетт, Джерард Батлер, Крэйг Фергюсон, Америка Феррера, Джона Хилл, Кристофер Минц-Плассе, ТиДжей Миллер, Кристен Уиг, Джимон Хонсу
Описание: С момента примирения викингов и драконов прошло пять лет. Пока Астрид, Сморкала и остальные ребята проводят время, соревнуясь друг с другом в популярных на острове драконьих гонках, Иккинг и Беззубик путешествуют по небу, составляя карту неизвестных мест. Когда одно из их приключений приводит к открытию тайной ледяной пещеры, которая является домом для сотен ранее невиданных диких драконов и таинственного драконьего всадника, два друга оказываются в центре битвы за защиту мира.-
Сэмпл: скачать-Релиз от -
Автор рипа: Elheym
Качество: BDRip-AVC (источник: / Blu-ray EUR [HOW_TO_TRAIN_YOUR_DRAGON_2] / 1080p)
Контейнер: MKV
Видео: 1120x476 (2.35:1), 23.976 fps, MPEG-4 AVC, ~3384 kbps avg, 0.265 bit/pixel
Аудио #1: Русский: АС3, 5.1, 48 kHz, ~448 Кбит/с | Профессиональный (полное дублирование), BD EUR |
Аудио #2: Английский: AC3, 5.1, 48 kHz, ~448 Кбит/с | Оригинал |
Аудио #3: Украинский: АС3, 5.1, 48 kHz, ~448 Кбит/с | Профессиональный (полное дублирование), BD EUR | (отдельно)
Субтитры: Русские (полные), Украинские (полные), Английские (полные)
Главы: присутствуют, сохранены оригинальные

MediaInfo

Уникальный идентификатор : 198077492533850486560363907270125657994 (0x9504566106CE3619B69A7CC357859F8A)
Полное имя : How.to.Train.Your.Dragon 2.2014.DUAL.BDRip-AVC.x264.AC3.-HQCLUB.mkv
Формат : Matroska
Версия формата : Version 2
Размер файла : 3,11 Гбайт
Продолжительность : 1 ч. 41 м.
Общий поток : 4367 Кбит/сек
Дата кодирования : UTC 2014-10-19 08:02:47
Программа кодирования : mkvmerge v5.2.0 ('I can't explain') built on Dec 18 2011 18:12:03
Библиотека кодирования : libebml v1.2.3 + libmatroska v1.3.0
Attachment : Yes
Видео
Идентификатор : 1
Формат : AVC
Формат/Информация : Advanced Video Codec
Профиль формата : High@L4.1
Параметр CABAC формата : Да
Параметр ReFrames формата : 12 кадров
Идентификатор кодека : V_MPEG4/ISO/AVC
Продолжительность : 1 ч. 41 м.
Битрейт : 3384 Кбит/сек
Ширина : 1120 пикселей
Высота : 476 пикселей
Соотношение сторон : 2,35:1
Режим частоты кадров : Постоянный
Частота кадров : 23,976 кадра/сек
Цветовое пространство : YUV
Субдискретизация насыщенности : 4:2:0
Битовая глубина : 8 бит
Тип развёртки : Прогрессивная
Бит/(Пиксели*Кадры) : 0.265
Размер потока : 2,41 Гбайт (77%)
Заголовок : Как приручить дракона 2 / How to Train Your Dragon 2 (2014) BDRip-AVC by HQCLUB [Elheym]
Библиотека кодирования : x264 core 142 r2479kMod dd79a61
Настройки программы : cabac=1 / ref=12 / deblock=1:-3:-2 / analyse=0x3:0x113 / me=umh / subme=11 / psy=1 / fade_compensate=0.00 / psy_rd=1.07:0.00 / mixed_ref=1 / me_range=32 / chroma_me=1 / trellis=2 / 8x8dct=1 / cqm=0 / deadzone=21,11 / fast_pskip=0 / chroma_qp_offset=-4 / threads=6 / lookahead_threads=1 / sliced_threads=0 / nr=0 / decimate=1 / interlaced=0 / bluray_compat=0 / constrained_intra=0 / fgo=0 / bframes=11 / b_pyramid=2 / b_adapt=2 / b_bias=0 / direct=1 / weightb=1 / open_gop=0 / weightp=2 / keyint=230 / keyint_min=23 / scenecut=40 / intra_refresh=0 / rc_lookahead=40 / rc=crf / mbtree=1 / crf=16.7000 / qcomp=0.70 / qpmin=0 / qpmax=69 / qpstep=4 / vbv_maxrate=50000 / vbv_bufsize=62500 / crf_max=0.0 / nal_hrd=none / filler=0 / ip_ratio=1.40 / aq=1:0.90
Язык : English
Default : Да
Forced : Нет
Аудио #1
Идентификатор : 2
Формат : AC-3
Формат/Информация : Audio Coding 3
Расширение режима : CM (complete main)
Параметр Endianness формата : Big
Идентификатор кодека : A_AC3
Продолжительность : 1 ч. 41 м.
Вид битрейта : Постоянный
Битрейт : 448 Кбит/сек
Каналы : 6 каналов
Расположение каналов : Front: L C R, Side: L R, LFE
Частота : 48,0 КГц
Битовая глубина : 16 бит
Метод сжатия : С потерями
Размер потока : 327 Мбайт (10%)
Заголовок : АС3 5.1 @ 448 kbps - Dub, BD EUR
Язык : Russian
Default : Нет
Forced : Нет
Аудио #2
Идентификатор : 3
Формат : AC-3
Формат/Информация : Audio Coding 3
Расширение режима : CM (complete main)
Параметр Endianness формата : Big
Идентификатор кодека : A_AC3
Продолжительность : 1 ч. 41 м.
Вид битрейта : Постоянный
Битрейт : 448 Кбит/сек
Каналы : 6 каналов
Расположение каналов : Front: L C R, Side: L R, LFE
Частота : 48,0 КГц
Битовая глубина : 16 бит
Метод сжатия : С потерями
Размер потока : 327 Мбайт (10%)
Заголовок : АС3 5.1 @ 448 kbps - Original
Язык : English
Default : Нет
Forced : Нет
Текст #1
Идентификатор : 4
Формат : UTF-8
Идентификатор кодека : S_TEXT/UTF8
Идентификатор кодека/Информация : UTF-8 Plain Text
Заголовок : Full
Язык : Russian
Default : Нет
Forced : Нет
Текст #2
Идентификатор : 5
Формат : UTF-8
Идентификатор кодека : S_TEXT/UTF8
Идентификатор кодека/Информация : UTF-8 Plain Text
Заголовок : Full
Язык : Ukrainian
Default : Нет
Forced : Нет
Текст #3
Идентификатор : 6
Формат : UTF-8
Идентификатор кодека : S_TEXT/UTF8
Идентификатор кодека/Информация : UTF-8 Plain Text
Заголовок : Full
Язык : English
Default : Нет
Forced : Нет
Меню
00:00:00.000 : :Chapter 01
00:03:27.999 : :Chapter 02
00:05:20.695 : :Chapter 03
00:07:46.007 : :Chapter 04
00:10:16.032 : :Chapter 05
00:13:16.337 : :Chapter 06
00:16:59.059 : :Chapter 07
00:20:01.700 : :Chapter 08
00:23:43.255 : :Chapter 09
00:27:14.466 : :Chapter 10
00:29:21.468 : :Chapter 11
00:33:41.936 : :Chapter 12
00:37:05.473 : :Chapter 13
00:39:06.969 : :Chapter 14
00:40:59.165 : :Chapter 15
00:45:03.992 : :Chapter 16
00:47:16.625 : :Chapter 17
00:51:51.525 : :Chapter 18
00:54:35.730 : :Chapter 19
00:56:15.997 : :Chapter 20
01:00:33.171 : :Chapter 21
01:04:28.781 : :Chapter 22
01:06:34.949 : :Chapter 23
01:09:44.138 : :Chapter 24
01:14:01.854 : :Chapter 25
01:18:35.127 : :Chapter 26
01:21:07.153 : :Chapter 27
01:22:55.053 : :Chapter 28
01:24:30.065 : :Chapter 29
01:28:04.654 : :Chapter 30
01:31:03.499 : :Chapter 31
01:32:21.994 : :Chapter 32
01:41:54.858 : :Chapter 33

x264 log

x264 [info]: frame I:1191 Avg QP:13.12 size:107194
x264 [info]: frame P:37797 Avg QP:17.20 size: 32262
x264 [info]: frame B:107628 Avg QP:20.31 size: 12114
x264 [info]: consecutive B-frames: 3.6% 3.9% 14.5% 36.8% 17.2% 15.3% 1.9% 0.8% 1.5% 3.8% 0.2% 0.3%
x264 [info]: ref P L0: 52.0% 9.6% 14.4% 6.6% 4.2% 3.5% 2.5% 1.8% 1.4% 1.4% 1.1% 1.2% 0.3% 0.0%
x264 [info]: ref B L0: 77.5% 9.8% 5.3% 2.4% 1.5% 1.0% 0.9% 0.5% 0.5% 0.3% 0.2%
x264 [info]: ref B L1: 92.9% 7.1%

Скриншоты

Показать сообщения:    

Текущее время: 20-Окт 22:14

Часовой пояс: UTC - 1


Вы не можете начинать темы
Вы не можете отвечать на сообщения
Вы не можете редактировать свои сообщения
Вы не можете удалять свои сообщения
Вы не можете голосовать в опросах
Вы не можете прикреплять файлы к сообщениям
Вы не можете скачивать файлы

!ВНИМАНИЕ!
Сайт не предоставляет электронные версии произведений, а занимается лишь коллекционированием и каталогизацией ссылок, присылаемых и публикуемых на форуме нашими читателями. Если вы являетесь правообладателем какого-либо представленного материала и не желаете, чтобы ссылка на него находилась в нашем каталоге, свяжитесь с нами, и мы незамедлительно удалим ее. Файлы для обмена на трекере предоставлены пользователями сайта, и администрация не несет ответственности за их содержание. Просьба не заливать файлы, защищенные авторскими правами, а также файлы нелегального содержания!