Ивановский Торрент трекер
Яндекс.Погода
 

[Цитировать]
Shalun

-Как по маслу / Butter-Информация о фильме
Название: Как по маслу
Оригинальное название: Butter
Год выхода: 2011
Жанр: комедия
Режиссер: Джим Филд Смит
В ролях: Дженнифер Гарнер, Тай Бурелл, Оливия Уайлд, Роб Кордри, Эшли Грин, Алисия Сильверстоун, Хью Джекман, Кристен Шааль, Прюитт Тэйлор Винс, Филлис Смит
О фильме:
История о девочке, удочеренной в маленьком городке на Среднем Западе, которая открывает в себе талант вырезания скульптур из сливочного масла. На ежегодном местном конкурсе ей придется посоперничать с амбициозной женщиной, ранее не знавшей конкурентов в этом ремесле.

Страна: США
Продолжительность: 01:30:32
Перевод: Профессиональный (Многоголосый закадровый) | R5
Файл
Кодек: h.264
Качество: BDRip-AVC
Видео: 1024x436 (2,35:1), 23.976 fps, 1843 kbps, 0.172 bit/pixel
Звук: 48 kHz, AC3 5.1, 448.00 kbps
Сэмпл

MediaInfo

Общее
Уникальный идентификатор : 218178365805799190196514734709497249809 (0xA4239FF26323858A81825FA56375C011)
Полное имя : D:Butter.2011.BDRip-AVC.mkv
Формат : Matroska
Версия формата : Version 4 / Version 2
Размер файла : 1,45 Гбайт
Продолжительность : 1 ч. 30 м.
Общий поток : 2290 Кбит/сек
Название фильма : Как по маслу / Butter (2011) BDRip-AVC rip by Rulya74
Дата кодирования : UTC 2010-02-22 21:41:31
Программа кодирования : mkvmerge v5.9.0 ('On The Loose') built on Dec 9 2012 15:37:01
Библиотека кодирования : libebml v1.3.0 + libmatroska v1.4.0
Видео
Идентификатор : 1
Формат : AVC
Формат/Информация : Advanced Video Codec
Профиль формата : High@L4.1
Параметр CABAC формата : Да
Параметр ReFrames формата : 12 кадров
Идентификатор кодека : V_MPEG4/ISO/AVC
Продолжительность : 1 ч. 30 м.
Битрейт : 1843 Кбит/сек
Ширина : 1024 пикселя
Высота : 436 пикселей
Соотношение сторон : 2,35:1
Частота кадров : 23,976 кадра/сек
Цветовое пространство : YUV
Субдискретизация насыщенности : 4:2:0
Битовая глубина : 8 бит
Тип развёртки : Прогрессивная
Бит/(Пиксели*Кадры) : 0.172
Размер потока : 1,14 Гбайт (78%)
Библиотека кодирования : x264 core 129 r2230 1cffe9f
Настройки программы : cabac=1 / ref=12 / deblock=1:-2:-1 / analyse=0x3:0x133 / me=umh / subme=10 / psy=1 / psy_rd=1.06:0.03 / mixed_ref=1 / me_range=40 / chroma_me=1 / trellis=2 / 8x8dct=1 / cqm=0 / deadzone=21,11 / fast_pskip=0 / chroma_qp_offset=-3 / threads=2 / lookahead_threads=1 / sliced_threads=0 / nr=0 / decimate=1 / interlaced=0 / bluray_compat=0 / constrained_intra=0 / bframes=5 / b_pyramid=2 / b_adapt=2 / b_bias=0 / direct=3 / weightb=1 / open_gop=0 / weightp=2 / keyint=240 / keyint_min=23 / scenecut=40 / intra_refresh=0 / rc_lookahead=40 / rc=2pass / mbtree=1 / bitrate=1843 / ratetol=1.0 / qcomp=0.60 / qpmin=10 / qpmax=51 / qpstep=4 / cplxblur=20.0 / qblur=0.5 / ip_ratio=1.40 / aq=2:1.00
Default : Да
Forced : Нет
Аудио
Идентификатор : 2
Формат : AC-3
Формат/Информация : Audio Coding 3
Расширение режима : CM (complete main)
Идентификатор кодека : A_AC3
Продолжительность : 1 ч. 30 м.
Вид битрейта : Постоянный
Битрейт : 448 Кбит/сек
Каналы : 6 каналов
Расположение каналов : Front: L C R, Side: L R, LFE
Частота : 48,0 КГц
Битовая глубина : 16 бит
Метод сжатия : С потерями
Размер потока : 290 Мбайт (20%)
Заголовок : Многоголосый закадровый [R5]
Default : Да
Forced : Нет

Скриншоты




Показать сообщения:    

Текущее время: 14-Дек 18:54

Часовой пояс: UTC ± 0


Вы не можете начинать темы
Вы не можете отвечать на сообщения
Вы не можете редактировать свои сообщения
Вы не можете удалять свои сообщения
Вы не можете голосовать в опросах
Вы не можете прикреплять файлы к сообщениям
Вы не можете скачивать файлы

!ВНИМАНИЕ!
Сайт не предоставляет электронные версии произведений, а занимается лишь коллекционированием и каталогизацией ссылок, присылаемых и публикуемых на форуме нашими читателями. Если вы являетесь правообладателем какого-либо представленного материала и не желаете, чтобы ссылка на него находилась в нашем каталоге, свяжитесь с нами, и мы незамедлительно удалим ее. Файлы для обмена на трекере предоставлены пользователями сайта, и администрация не несет ответственности за их содержание. Просьба не заливать файлы, защищенные авторскими правами, а также файлы нелегального содержания!