Важное объявление!
У Нас Все раздачи мультитрекерные, при нуле пиров в релизах, можете смело вставать на закачку!
 
Автор Сообщение

HUNTER

Стаж:
4 года 7 месяцев
Сообщений:
61649

Репутация: 101

[+] [-]
Вне форума [Профиль] [ЛС]

Как важно быть серьезным / The Importance of Being Earnest
4:3 NTSC R1
Страна: Великобритания
Студия: British Broadcasting Corporation (BBC)
Жанр: комедия
Год выпуска: 1986
Продолжительность: 01:49:56
Перевод: Одноголосый закадровый - lehachuev
Cубтитры: русские(granzo{zoyats}, Ta_nusha{Ta_ti_ana}), английские[CC]
Оригинальная аудиодорожка: английский
Режиссер: Стюарт Бёрдж / Stuart Burge
В ролях: Джон Вуднатт, Руперт Фрейзер, Пол МакГанн, Джоан Плаурайт, Аманда Редман, Джемма Джонс, Натали Огл, Алек МакКоуэн, Джон Кармби, Питер Копли.
Описание: Что произойдет, если два блистательных британских джентльмена от скуки затеют рискованную и непредсказуемую игру в псевдонимы? Как, например, неотразимый Джек, заботливый опекун юной Сесили, приезжающий в Лондон, чтобы под именем Эрнест сделать предложение аристократке Гвендолин, и неутомимый ловкач Олги, предлагающий руку и сердце провинциалке Сесили также под именем Эрнест. Подобные забавы не проходят безнаказанно — скоро Гвендолин и Сесили узнают, что к ним сватается один и тот же мужчина! Назревает жуткий скандал, и теперь влюбленным ловеласам придется понять, как всё-таки важно хоть иногда быть серьезным…
Доп. информация: Диск собран из The Oscar Wilde Collection_Stage Left_DVD9 R1 найденного в сети. (Который на постере)
Бонусы: Филмографии.
Меню: Анимированное, озвученное, на ангийском..
.
.
Меню неотредактировано, переключение звуковых дорожек и субтитров с пульта.
Фильм автоматический стартует с рус. звук. дорожкой.
--Спасибо за рус. Одноголосый и субтитры granzo
-- --The Importance of Being Earnest_1986_DVD9 R1_Sample_.rar-
-
Точка перехода на второй слой

-
-Тип релиза: DVD9 (Custom)
Контейнер: DVD-Video
Видео: NTSC 4:3 (720x480) VBR, ~ 4978.48 kbps avg
Аудио 1: English, AC3, 2/0 (L,R) ch, 192 kbps, Delay 0 mSec
Аудио 2: Russian, AC3, 2/0 (L,R) ch, 192 kbps, Delay 0 mSec
Формат субтитров: prerendered (DVD/IDX+SUB), СС (Closed Captions)
MediaInfo
General
Complete name : The Importance of Being Earnest_1986_,The Picture of Dorian Gray_1976_DVD9 R1\VIDEO_TS\VTS_01_2.VOB
Format : MPEG-PS
File size : 1 024 MiB
Duration : 27mn 54s
Overall bit rate mode : Variable
Overall bit rate : 5 130 Kbps
Video
ID : 224 (0xE0)
Format : MPEG Video
Format version : Version 2
Format profile : Main@Main
Format settings, BVOP : Yes
Format settings, Matrix : Custom
Format settings, GOP : M=3, N=15
Duration : 27mn 54s
Bit rate mode : Variable
Bit rate : 4 644 Kbps
Maximum bit rate : 9 216 Kbps
Width : 720 pixels
Height : 480 pixels
Display aspect ratio : 4:3
Frame rate : 29.970 fps
Standard : NTSC
Color space : YUV
Chroma subsampling : 4:2:0
Bit depth : 8 bits
Scan type : Interlaced
Scan order : Top Field First
Compression mode : Lossy
Bits/(Pixel*Frame) : 0.448
Time code of first frame : 01:28:57:15
Time code source : Group of pictures header
Stream size : 927 MiB (91%)
Audio #1
ID : 189 (0xBD)-128 (0x80)
Format : AC-3
Format/Info : Audio Coding 3
Mode extension : CM (complete main)
Format settings, Endianness : Big
Muxing mode : DVD-Video
Duration : 27mn 54s
Bit rate mode : Constant
Bit rate : 192 Kbps
Channel(s) : 2 channels
Channel positions : Front: L R
Sampling rate : 48.0 KHz
Bit depth : 16 bits
Compression mode : Lossy
Delay relative to video : -378ms
Stream size : 38.3 MiB (4%)
Audio #2
ID : 189 (0xBD)-129 (0x81)
Format : AC-3
Format/Info : Audio Coding 3
Mode extension : CM (complete main)
Format settings, Endianness : Big
Muxing mode : DVD-Video
Duration : 27mn 54s
Bit rate mode : Constant
Bit rate : 192 Kbps
Channel(s) : 2 channels
Channel positions : Front: L R
Sampling rate : 48.0 KHz
Bit depth : 16 bits
Compression mode : Lossy
Delay relative to video : -378ms
Stream size : 38.3 MiB (4%)
Text #1
ID : 189 (0xBD)-32 (0x20)
Format : RLE
Format/Info : Run-length encoding
Muxing mode : DVD-Video
Duration : 27mn 44s
Delay relative to video : 2s 636ms
Text #2
ID : 224 (0xE0)-CC3
Format : EIA-608
Muxing mode, more info : Muxed in Video #1
Bit rate mode : Constant
Stream size : 0.00 Byte (0%)
Menu
DVD Info
Title: The Importance of Being Earnest_1986_,The Picture of Dorian Gray_1976_DVD9 R1
Size: 7.25 Gb ( 7 599 268,00 KBytes ) - DVD-9
Enabled regions: 1, 2, 3, 4, 5, 6, 7, 8
VTS_01 :
Play Length: 01:49:56+01:38:06
Video: NTSC 4:3 (720x480) VBR
Audio:
English, AC3, 2/0 (L,R) ch, 192 kbps, Delay 0 mSec
Russian, AC3, 2/0 (L,R) ch, 192 kbps, Delay 0 mSec
Subtitles:
Russian
VTS_02 :
Play Length: 00:00:20
Video: NTSC 4:3 (720x480) VBR
Audio:
English (Dolby AC3, 2 ch)
* Menus Information *
VIDEO_TS Menu
Video:
NTSC 4:3 (720x480) VBR
Auto Pan&Scan, Auto Letterboxed
Language Unit :
VTS_01 Menu
Video:
NTSC 4:3 (720x480) VBR
Audio:
Not specified (Dolby AC3, 2 ch)
English Language Unit :
Root Menu
VTS_02 Menu
Video:
NTSC 4:3 (720x480) VBR
Auto Pan&Scan, Auto Letterboxed
Language Unit :
Root Menu
П. О.
PgcDemux 1.2.0.5 - разделение компонентов диска на файлы;
BeSweetv1.5b31+BeLight 0.21 - AC3, mp3 -> Wav
Sound Forge pro 10 - Wav -> AC3
MaestroSBT-Unicode-2.6.2.1 - Создание субтитров
DVDSubEdit -- Version 1.52 - Правка (цветовых схем) субтитров
MuxMan DVD authoring Professional 1.4.4 - мультиплексирование и авторинг DVD;
DVDRemake Pro 3.6.4 - реавторинг DVD;
DVD Shrink 3.2 - Сэмпл
VLC - Скриншоты-
-
-

-
-
-BeSweet v1.5b31 by DSPguru.
--------------------------
Using azid.dll v1.9 (b922) by Midas (midas@egon.gyaloglo.hu).
Logging start : 05/25/14 , 15:46:04.
BeSweet.exe -core( -input C:\Temp\OSCAR\111\AudioFile_80.ac3 -output C:\Temp\OSCAR\111\AudioFile_80.wav -2ch -logfile C:\Temp\OSCAR\111\AudioFile_80.log ) -azid( -s mono -c normal -L -3db )
[00:00:00:000] +------- BeSweet -----
[00:00:00:000] | Input : C:\Temp\OSCAR\111\AudioFile_80.ac3
[00:00:00:000] | Output: C:\Temp\OSCAR\111\AudioFile_80.wav
[00:00:00:000] | Floating-Point Process: No
[00:00:00:000] +-------- AZID -------
[00:00:00:000] | Input Channels Mode: 2/0, Bitrate: 192kbps
[00:00:00:000] | Output Stereo mode: Dolby surround 2 compatible
[00:00:00:000] | Total Gain: 0.000dB, Compression: Normal
[00:00:00:000] | LFE levels: To LR -3.0dB, To LFE 0.0dB
[00:00:00:000] | Center mix level: BSI
[00:00:00:000] | Surround mix level: BSI
[00:00:00:000] | Dialog normalization: No
[00:00:00:000] | Rear channels filtering: No
[00:00:00:000] | Source Sample-Rate: 48.0KHz
[00:00:00:000] +---------------------
[01:50:03:072] Conversion Completed !
[01:50:03:072] Actual Avg. Bitrate : 235kbps
[00:02:25:000] <-- Transcoding Duration
Logging ends : 05/25/14 , 15:48:29.
--BeSweet v1.5b31 by DSPguru.
--------------------------
Using hip.dll v1.19 by Myers Carpenter <myers@users.sf.net>
Logging start : 05/25/14 , 15:54:01.
BeSweet.exe -core( -input C:\Temp\OSCAR\111\RUS.mp3 -output C:\Temp\OSCAR\111\RUS.wav -2ch -logfile C:\Temp\OSCAR\111\RUS.log ) -azid( -s mono -L -3db )
[00:00:00:000] +------- BeSweet -----
[00:00:00:000] | Input : C:\Temp\OSCAR\111\RUS.mp3
[00:00:00:000] | Output: C:\Temp\OSCAR\111\RUS.wav
[00:00:00:000] | Floating-Point Process: No
[00:00:00:000] | Source Sample-Rate: 48.0KHz
[00:00:00:000] +---------------------
[01:49:30:440] Conversion Completed !
[01:49:30:440] Actual Avg. Bitrate : 228kbps
[00:01:00:000] <-- Transcoding Duration
Logging ends : 05/25/14 , 15:55:01.
--MuxMan version 1.4.4
new project database size 400, base 2810018.
new pointer management list size 50.
new clipboard database size 20, base 2a8d60.
05:33:34 Begin m2v survey of C:\Temp\OSCAR\111\VideoFile.m2v.
Accepted audio C:\Temp\OSCAR\111\RUS.ac3
Accepted audio C:\Temp\OSCAR\111\AudioFile_80.ac3
expanded database to 602 entries.
expanded database to 804 entries.
expanded database to 1006 entries.
expanded database to 1208 entries.
expanded database to 1410 entries.
expanded database to 1612 entries.
expanded database to 1814 entries.
expanded database to 2016 entries.
expanded database to 2218 entries.
expanded database to 2420 entries.
expanded database to 2622 entries.
expanded database to 2824 entries.
expanded database to 3026 entries.
expanded database to 3228 entries.
expanded database to 3430 entries.
expanded database to 3632 entries.
expanded database to 3834 entries.
expanded database to 4036 entries.
expanded database to 4238 entries.
05:35:04 End survey of C:\Temp\OSCAR\111\VideoFile.m2v.
expanded database to 4442 entries.
05:36:18 Begin multiplex VTS01.
Title Segment List
Segment_1 non-seamless
Encoded stream 20 is script stream 1.
Buffering audio track 1 file C:\Temp\OSCAR\111\RUS.ac3.
Buffering audio track 2 file C:\Temp\OSCAR\111\AudioFile_80.ac3.
Maximum audio duration 395790 fields.
Multiplex delay set to 25257.
new graphics buffer size 414720.
Positioned C:\Temp\OSCAR\111\VideoFile.m2v to 00:00:00:00
Starting scene Segment_1_scn1 at 00:00:00:00
Starting scene Segment_1_scn2 at 00:12:23:00
Starting scene Segment_1_scn3 at 00:22:27:08
Starting scene Segment_1_scn4 at 00:29:31:20
Starting scene Segment_1_scn5 at 00:35:19:20
Starting scene Segment_1_scn6 at 00:44:39:14
Starting scene Segment_1_scn7 at 00:49:53:23
Starting scene Segment_1_scn8 at 00:58:33:22
Starting scene Segment_1_scn9 at 01:05:47:00
Starting scene Segment_1_scn10 at 01:16:03:20
Starting scene Segment_1_scn11 at 01:24:25:22
Starting scene Segment_1_scn12 at 01:37:02:27
End of video file
Bytes remaining in buffer = 0.
Bitrate - avg: 5056443, min: 491028 (lba 0), max: 8576639 (lba 1033349).
Shortest GOP has 10 fields, longest GOP has 36 fields.
Fields: 395790, VOBU: 13187, Sectors: 2037853.
05:45:28 Begin multiplex VMG.
05:45:28 End multiplex.
Summary of Virtual Memory Management
VM base 02810000, reserved 57000000, commited 00080000, free f358, disposable 0.
handle 1, size 70ca8 (461968 data), owner 80000001, time 0, locks 1 0 0, lcnt 1.
Locked by DBinit.
handle 0, size f358 (62272 data), owner 0, time 0, locks 0 0 0, lcnt 0.
Скриншоты менюСкриншотыСкриншоты доп. материалов
-
-
-
--Портрет Дориана Грея / The Picture of Dorian Gray
4:3 NTSC R1
Страна: Великобритания
Студия: British Broadcasting Corporation (BBC)
Жанр: комедия
Год выпуска: 1976
Продолжительность: 01:38:06
Перевод: Субтитры - loolas
Cубтитры: русские, английские[CC]
Оригинальная аудиодорожка: английский
Режиссер: Джон Горри / John Gorrie
В ролях: Джон Гилгуд, Джереми Бретт, Питер Ферт, Джуди Боукер, Николас Болл и другие.
Описание: По роману Оскара Уайльда.
Молодой красавец Дориан Грей влюбляется в собственный портрет, написанный художником Бэзилом. Дориан не может смириться с тем, что он сам с течением времени состарится, а портрет всегда останется молодым и прекрасным. Терзаемый завистью к собственной красоте, Дориан желает, чтобы было наоборот — портрет менялся, а сам Грей сохранял свою привлекательность. Но помимо внешности у человека есть душа, которая старится независимо от возраста…
Доп. информация: Диск собран из The Oscar Wilde Collection_Stage Left_DVD9 R1 найденного в сети. (Который на постере)
Бонусы: Филмографии.
Меню: Анимированное, озвученное, на ангийском..
.
.
.
Меню неотредактировано, переключение субтитров с пульта.
Фильм автоматический стартует с анг. звук. дорожкой и рус. субтитрами.
--Спасибо за рус. субтитры и описание фильма loolas
-- --The Picture of Dorian Gray_1976_DVD9 R1_Sample_.rar-
-
Точка перехода на второй слой

-
-Тип релиза: DVD9 (Custom)
Контейнер: DVD-Video
Видео: NTSC 4:3 (720x480) VBR, ~ 4978.48 kbps avg
Аудио 1: English, AC3, 2/0 (L,R) ch, 192 kbps, Delay 0 mSec
Формат субтитров: prerendered (DVD/IDX+SUB), СС (Closed Captions)
MediaInfo
General
Complete name : The Importance of Being Earnest_1986_,The Picture of Dorian Gray_1976_DVD9 R1\VIDEO_TS\VTS_01_7.VOB
Format : MPEG-PS
File size : 1 024 MiB
Duration : 32mn 10s
Overall bit rate mode : Variable
Overall bit rate : 4 450 Kbps
Video
ID : 224 (0xE0)
Format : MPEG Video
Format version : Version 2
Format profile : Main@Main
Format settings, BVOP : Yes
Format settings, Matrix : Custom
Format settings, GOP : M=3, N=15
Duration : 32mn 9s
Bit rate mode : Variable
Bit rate : 4 170 Kbps
Maximum bit rate : 8 814 Kbps
Width : 720 pixels
Height : 480 pixels
Display aspect ratio : 4:3
Frame rate : 29.970 fps
Standard : NTSC
Color space : YUV
Chroma subsampling : 4:2:0
Bit depth : 8 bits
Scan type : Interlaced
Scan order : Top Field First
Compression mode : Lossy
Bits/(Pixel*Frame) : 0.403
Time code of first frame : 01:59:10:05
Time code source : Group of pictures header
Stream size : 959 MiB (94%)
Audio
ID : 189 (0xBD)-128 (0x80)
Format : AC-3
Format/Info : Audio Coding 3
Mode extension : CM (complete main)
Format settings, Endianness : Big
Muxing mode : DVD-Video
Duration : 32mn 10s
Bit rate mode : Constant
Bit rate : 192 Kbps
Channel(s) : 2 channels
Channel positions : Front: L R
Sampling rate : 48.0 KHz
Bit depth : 16 bits
Compression mode : Lossy
Delay relative to video : -553ms
Stream size : 44.2 MiB (4%)
Text #1
ID : 189 (0xBD)-32 (0x20)
Format : RLE
Format/Info : Run-length encoding
Muxing mode : DVD-Video
Duration : 32mn 7s
Delay relative to video : 1s 401ms
Text #2
ID : 224 (0xE0)-CC3
Format : EIA-608
Muxing mode, more info : Muxed in Video #1
Bit rate mode : Constant
Stream size : 0.00 Byte (0%)
Menu
DVD Info
Title: The Importance of Being Earnest_1986_,The Picture of Dorian Gray_1976_DVD9 R1
Size: 7.25 Gb ( 7 599 268,00 KBytes ) - DVD-9
Enabled regions: 1, 2, 3, 4, 5, 6, 7, 8
VTS_01 :
Play Length: 01:49:56+01:38:06
Video: NTSC 4:3 (720x480) VBR
Audio:
English, AC3, 2/0 (L,R) ch, 192 kbps, Delay 0 mSec
Russian, AC3, 2/0 (L,R) ch, 192 kbps, Delay 0 mSec
Subtitles:
Russian
VTS_02 :
Play Length: 00:00:20
Video: NTSC 4:3 (720x480) VBR
Audio:
English (Dolby AC3, 2 ch)
* Menus Information *
VIDEO_TS Menu
Video:
NTSC 4:3 (720x480) VBR
Auto Pan&Scan, Auto Letterboxed
Language Unit :
VTS_01 Menu
Video:
NTSC 4:3 (720x480) VBR
Audio:
Not specified (Dolby AC3, 2 ch)
English Language Unit :
Root Menu
VTS_02 Menu
Video:
NTSC 4:3 (720x480) VBR
Auto Pan&Scan, Auto Letterboxed
Language Unit :
Root Menu
П. О.
PgcDemux 1.2.0.5 - разделение компонентов диска на файлы;
MaestroSBT-Unicode-2.6.2.1 - Создание субтитров
DVDSubEdit -- Version 1.52 - Правка (цветовых схем) субтитров
MuxMan DVD authoring Professional 1.4.4 - мультиплексирование и авторинг DVD;
DVDRemake Pro 3.6.4 - реавторинг DVD;
DVD Shrink 3.2 - Сэмпл
VLC - Скриншоты-
-
- -
-
-MuxMan version 1.4.4
new project database size 400, base 2820018.
new pointer management list size 50.
new clipboard database size 20, base 6a8d60.
16:49:28 Begin m2v survey of C:\Temp\OSCAR\222\VideoFile.m2v.
Accepted audio C:\Temp\OSCAR\222\AudioFile_80.ac3
expanded database to 602 entries.
expanded database to 804 entries.
expanded database to 1006 entries.
expanded database to 1208 entries.
expanded database to 1410 entries.
expanded database to 1612 entries.
expanded database to 1814 entries.
expanded database to 2016 entries.
expanded database to 2218 entries.
expanded database to 2420 entries.
expanded database to 2622 entries.
expanded database to 2824 entries.
expanded database to 3026 entries.
expanded database to 3228 entries.
expanded database to 3430 entries.
16:50:58 End survey of C:\Temp\OSCAR\222\VideoFile.m2v.
expanded database to 3631 entries.
16:53:33 Begin multiplex VTS01.
Title Segment List
Segment_1 non-seamless
Encoded stream 20 is script stream 1.
Buffering audio track 1 file C:\Temp\OSCAR\222\AudioFile_80.ac3.
Maximum audio duration 353170 fields.
Multiplex delay set to 25257.
new graphics buffer size 414720.
Positioned C:\Temp\OSCAR\222\VideoFile.m2v to 00:00:00:00
Starting scene Segment_1_scn1 at 00:00:00:00
Starting scene Segment_1_scn2 at 00:08:48:08
Starting scene Segment_1_scn3 at 00:17:27:01
Starting scene Segment_1_scn4 at 00:28:51:08
Starting scene Segment_1_scn5 at 00:34:58:20
Starting scene Segment_1_scn6 at 00:40:47:28
Starting scene Segment_1_scn7 at 00:45:47:05
Starting scene Segment_1_scn8 at 00:56:08:19
Starting scene Segment_1_scn9 at 01:06:48:10
Starting scene Segment_1_scn10 at 01:10:34:20
Starting scene Segment_1_scn11 at 01:18:33:15
Starting scene Segment_1_scn12 at 01:25:52:11
End of video file
Bytes remaining in buffer = 0.
Bitrate - avg: 4859500, min: 360087 (lba 0), max: 8478433 (lba 527585).
Shortest GOP has 10 fields, longest GOP has 34 fields.
Fields: 353170, VOBU: 11766, Sectors: 1747585.
16:59:52 Begin multiplex VMG.
16:59:52 End multiplex.
Summary of Virtual Memory Management
VM base 02820000, reserved 57000000, commited 00060000, free 3cd0, disposable 0.
handle 1, size 5c330 (377624 data), owner 80000001, time 0, locks 1 0 0, lcnt 1.
Locked by DBinit.
handle 0, size 3cd0 (15544 data), owner 0, time 0, locks 0 0 0, lcnt 0.
Скриншоты менюСкриншотыСкриншоты доп. материалов
-
-
-
-
-
Блинчик

_________________
Показать сообщения:    

Текущее время: Сегодня 20:18

Часовой пояс: GMT



Вы не можете начинать темы
Вы не можете отвечать на сообщения
Вы не можете редактировать свои сообщения
Вы не можете удалять свои сообщения
Вы не можете голосовать в опросах
Вы не можете прикреплять файлы к сообщениям
Вы не можете скачивать файлы
Наши партнеры: интернет магазин Ивановского трикотажа textilla.ru