Важное объявление!
У Нас Все раздачи мультитрекерные, при нуле пиров в релизах, можете смело вставать на закачку!
 
Автор Сообщение

HUNTER

Стаж:
4 года 7 месяцев
Сообщений:
61582

Репутация: 101

[+] [-]
Вне форума [Профиль] [ЛС]

Какими мы были / The Way We Were
Страна: США
Жанр: драма, мелодрама
Год выпуска: 1973
Продолжительность: 01:58:16
Перевод#1: Профессиональный многоголосый закадровый) | ОРТ
Перевод#2: Профессиональный многоголосый закадровый) | НТВ+
Перевод#3: Профессиональный (двухголосый закадровый) | Видеосервис
Перевод#4: Авторский (одноголосый закадровый), П. Карцев
Cубтитры: английские
Оригинальная аудиодорожка: английский
Режиссер: Сидни Поллак / Sydney Pollack
В ролях: Барбра Стрейзанд, Роберт Редфорд, Брэдфорд Диллман, Лоис Чайлз, Патрик О’Нил, Вивека Линдфорс, Эллин Энн МакЛери, Мюррэй Хэмилтон, Херб Эдельман, Диана Юинг
Описание: Юная радикалка Кэти мечтает стать писательницей. Но день и ночь она озабочена несправедливостью этого мира. Кэти всё время отдаёт митингам и демонстрациям, что вызывает горячую поддержку одних её друзей и постоянные насмешки со стороны других. Но совершенно неожиданно для себя оригиналка Кэти понимает, что влюблена в первого красавца школы Хаббла
Она некрасива и чувствует себя несчастной. Но через годы, в 1945-м, они встречаются, и между ними вспыхивает любовь. Более непохожих людей представить себе невозможно. Расставание неизбежно. Но пока они вместе, их счастье бесконечно...

Тип релиза: BDRip 720p (от DON) | sample
Контейнер: MKV
Видео кодек: x264
Видео: AVC 1280x534 (2.40:1), 23.976 fps, 6862 Kbps, 0.42 bit/pixel
Аудио #1: Russian AC3 2ch 48kHz 192Kbps | MVO ОРТ
Аудио #2: Russian AC3 2ch 48kHz 192Kbps | MVO НТВ+
Аудио #3: Russian AC3 2ch 48kHz 192Kbps | DVO Видеосервис
Аудио #4: Russian AC3 2ch 48kHz 192Kbps | AVO Карцев
Аудио #5: English DTS 6ch 48kHz 1510Kbps | Original
Формат субтитров: softsub (SRT)
Главы: есть

Дополнительно

ОРТ и Карцев с HDTRACKER, НТВ+ и Видеосервис переделал отсюда, всем спасибо

MediaInfo | x264

x264
x264 [info]: profile High, level 4.1
x264 [info]: frame I:1223 Avg QP:17.73 size:103276
x264 [info]: frame P:30843 Avg QP:18.60 size: 62453
x264 [info]: frame B:138070 Avg QP:20.26 size: 29220
x264 [info]: consecutive B-frames: 0.9% 0.7% 1.9% 14.6% 16.2% 39.9% 10.1% 15.7%
encoded 170136 frames, 7.07 fps, 6862.24 kb/s
General
Complete name : E:\...\The.Way.We.Were.1973.720p.BluRay.x264.4xRus.Eng-DON.mkv
Format : Matroska
Format version : Version 2
File size : 7.55 GiB
Duration : 1h 58mn
Overall bit rate : 9 143 Kbps
Movie name : The.Way.We.Were.1973.720p.BluRay.x264.4xRus.Eng-DON
Encoded date : UTC 2014-08-24 11:35:51
Writing application : mkvmerge v7.0.0 ('Where We Going') 64bit built on Jun 9 2014 15:16:27
Writing library : libebml v1.3.0 + libmatroska v1.4.1
Video
ID : 1
Format : AVC
Format/Info : Advanced Video Codec
Format profile : High@L4.1
Format settings, CABAC : Yes
Format settings, ReFrames : 11 frames
Codec ID : V_MPEG4/ISO/AVC
Bit rate : 6 683 Kbps
Width : 1 280 pixels
Height : 534 pixels
Display aspect ratio : 2.40:1
Frame rate mode : Variable
Original frame rate : 23.976 fps
Color space : YUV
Chroma subsampling : 4:2:0
Bit depth : 8 bits
Scan type : Progressive
Title : The Way We Were (1973)
Writing library : x264 core 116 r2057 0ba8a9c
Encoding settings : cabac=1 / ref=11 / deblock=1:-3:-3 / analyse=0x3:0x133 / me=umh / subme=10 / psy=1 / psy_rd=1.00:0.00 / mixed_ref=1 / me_range=32 / chroma_me=1 / trellis=2 / 8x8dct=1 / cqm=0 / deadzone=21,11 / fast_pskip=0 / chroma_qp_offset=-2 / threads=18 / sliced_threads=0 / nr=0 / decimate=0 / interlaced=0 / bluray_compat=0 / constrained_intra=0 / bframes=7 / b_pyramid=2 / b_adapt=2 / b_bias=0 / direct=3 / weightb=1 / open_gop=0 / weightp=2 / keyint=250 / keyint_min=23 / scenecut=40 / intra_refresh=0 / rc_lookahead=40 / rc=crf / mbtree=0 / crf=17.0 / qcomp=0.65 / qpmin=0 / qpmax=40 / qpstep=4 / vbv_maxrate=50000 / vbv_bufsize=50000 / crf_max=0.0 / nal_hrd=none / ip_ratio=1.25 / pb_ratio=1.25 / aq=1:0.60
Language : English
Default : Yes
Forced : No
Audio #1
ID : 2
Format : AC-3
Format/Info : Audio Coding 3
Mode extension : CM (complete main)
Format settings, Endianness : Big
Codec ID : A_AC3
Duration : 1h 58mn
Bit rate mode : Constant
Bit rate : 192 Kbps
Channel(s) : 2 channels
Channel positions : Front: L R
Sampling rate : 48.0 KHz
Bit depth : 16 bits
Compression mode : Lossy
Stream size : 162 MiB (2%)
Title : MVO 1 channel
Language : Russian
Default : Yes
Forced : No
Audio #2
ID : 3
Format : AC-3
Format/Info : Audio Coding 3
Mode extension : CM (complete main)
Format settings, Endianness : Big
Codec ID : A_AC3
Duration : 1h 58mn
Bit rate mode : Constant
Bit rate : 192 Kbps
Channel(s) : 2 channels
Channel positions : Front: L R
Sampling rate : 48.0 KHz
Bit depth : 16 bits
Compression mode : Lossy
Stream size : 162 MiB (2%)
Title : MVO NTV+
Language : Russian
Default : No
Forced : No
Audio #3
ID : 4
Format : AC-3
Format/Info : Audio Coding 3
Mode extension : CM (complete main)
Format settings, Endianness : Big
Codec ID : A_AC3
Duration : 1h 58mn
Bit rate mode : Constant
Bit rate : 192 Kbps
Channel(s) : 2 channels
Channel positions : Front: L R
Sampling rate : 48.0 KHz
Bit depth : 16 bits
Compression mode : Lossy
Stream size : 162 MiB (2%)
Title : DVO Videoservis
Language : Russian
Default : No
Forced : No
Audio #4
ID : 5
Format : AC-3
Format/Info : Audio Coding 3
Mode extension : CM (complete main)
Format settings, Endianness : Big
Codec ID : A_AC3
Duration : 1h 58mn
Bit rate mode : Constant
Bit rate : 192 Kbps
Channel(s) : 2 channels
Channel positions : Front: L R
Sampling rate : 48.0 KHz
Bit depth : 16 bits
Compression mode : Lossy
Stream size : 162 MiB (2%)
Title : AVO Karzev
Language : Russian
Default : No
Forced : No
Audio #5
ID : 6
Format : DTS
Format/Info : Digital Theater Systems
Codec ID : A_DTS
Duration : 1h 58mn
Bit rate mode : Constant
Bit rate : 1 510 Kbps
Channel(s) : 6 channels
Channel positions : Front: L C R, Side: L R, LFE
Sampling rate : 48.0 KHz
Bit depth : 16 bits
Compression mode : Lossy
Stream size : 1.25 GiB (17%)
Title : Original
Language : English
Default : No
Forced : No
Text
ID : 7
Format : UTF-8
Codec ID : S_TEXT/UTF8
Codec ID/Info : UTF-8 Plain Text
Language : English
Default : No
Forced : No
Menu
00:00:00.000 : en:00:00:00.000
00:09:20.350 : en:00:09:20.350
00:16:30.280 : en:00:16:30.280
00:24:19.458 : en:00:24:19.458
00:29:48.953 : en:00:29:48.953
00:37:26.911 : en:00:37:26.911
00:44:11.565 : en:00:44:11.565
00:49:10.989 : en:00:49:10.989
00:54:53.289 : en:00:54:53.289
01:05:14.786 : en:01:05:14.786
01:13:32.324 : en:01:13:32.324
01:22:05.295 : en:01:22:05.295
01:30:47.817 : en:01:30:47.817
01:40:12.256 : en:01:40:12.256
01:45:36.704 : en:01:45:36.704
01:50:09.228 : en:01:50:09.228

Скриншоты

DON vs source






_________________
Показать сообщения:    

Текущее время: Сегодня 03:41

Часовой пояс: GMT



Вы не можете начинать темы
Вы не можете отвечать на сообщения
Вы не можете редактировать свои сообщения
Вы не можете удалять свои сообщения
Вы не можете голосовать в опросах
Вы не можете прикреплять файлы к сообщениям
Вы не можете скачивать файлы
Наши партнеры: интернет магазин Ивановского трикотажа textilla.ru