Важное объявление!
У Нас Все раздачи мультитрекерные, при нуле пиров в релизах, можете смело вставать на закачку!
Статистика раздачи
Размер:     |    Зарегистрирован:     |    Скачан:     |   
Нет
 
     
 
 
Автор Сообщение

HUNTER

Стаж:
5 лет
Сообщений:
68415

Репутация: 101

[+] [-]
Вне форума [Профиль] [ЛС]

Какими мы были / The Way We Were
Страна: США
Жанр: драма, мелодрама
Год выпуска: 1973
Продолжительность: 01:58:16
Перевод#1: Профессиональный многоголосый закадровый) | ОРТ
Перевод#2: Профессиональный многоголосый закадровый) | НТВ+
Перевод#3: Профессиональный (двухголосый закадровый) | Видеосервис
Перевод#4: Авторский (одноголосый закадровый), П. Карцев
Cубтитры: английские
Оригинальная аудиодорожка: английский
Режиссер: Сидни Поллак / Sydney Pollack
В ролях: Барбра Стрейзанд, Роберт Редфорд, Брэдфорд Диллман, Лоис Чайлз, Патрик О’Нил, Вивека Линдфорс, Эллин Энн МакЛери, Мюррэй Хэмилтон, Херб Эдельман, Диана Юинг
Описание: Юная радикалка Кэти мечтает стать писательницей. Но день и ночь она озабочена несправедливостью этого мира. Кэти всё время отдаёт митингам и демонстрациям, что вызывает горячую поддержку одних её друзей и постоянные насмешки со стороны других. Но совершенно неожиданно для себя оригиналка Кэти понимает, что влюблена в первого красавца школы Хаббла
Она некрасива и чувствует себя несчастной. Но через годы, в 1945-м, они встречаются, и между ними вспыхивает любовь. Более непохожих людей представить себе невозможно. Расставание неизбежно. Но пока они вместе, их счастье бесконечно...

Тип релиза: BDRemux 1080p | sample
Контейнер: MKV
Видео: MPEG-4 AVC Video / 24914 kbps / 1080p / 23.976 fps / 16:9 / High Profile 4.1
Аудио #1: Russian AC3 2ch 48kHz 192Kbps | MVO ОРТ
Аудио #2: Russian AC3 2ch 48kHz 192Kbps | MVO НТВ+
Аудио #3: Russian AC3 2ch 48kHz 192Kbps | DVO Видеосервис
Аудио #4: Russian AC3 2ch 48kHz 192Kbps | AVO Карцев
Аудио #5: English DTS-HD MA / 5.1 / 48 kHz / 2116 kbps / 16-bit (DTS Core: 5.1 / 48 kHz / 1509 kbps / 16-bit) | Original
Формат субтитров: softsub (SRT)
Главы: есть

Дополнительно

ОРТ и Карцев с HDTRACKER, НТВ+ и Видеосервис переделал отсюда, всем спасибо

MediaInfo

General
Complete name : D:\...\The.Way.We.Were.1973.1080p.Remux.AVC.4xRus.Eng.mkv
Format : Matroska
Format version : Version 2
File size : 23.0 GiB
Duration : 1h 58mn
Overall bit rate mode : Variable
Overall bit rate : 27.8 Mbps
Movie name : The.Way.We.Were.1973.1080p.Remux.AVC.4xRus.Eng
Encoded date : UTC 2014-08-24 12:14:33
Writing application : mkvmerge v7.0.0 ('Where We Going') 64bit built on Jun 9 2014 15:16:27
Writing library : libebml v1.3.0 + libmatroska v1.4.1
Video
ID : 1
Format : AVC
Format/Info : Advanced Video Codec
Format profile : High@L4.1
Format settings, CABAC : Yes
Format settings, ReFrames : 2 frames
Format settings, GOP : M=1, N=10
Codec ID : V_MPEG4/ISO/AVC
Duration : 1h 58mn
Bit rate mode : Variable
Bit rate : 24.9 Mbps
Width : 1 920 pixels
Height : 1 080 pixels
Display aspect ratio : 16:9
Frame rate mode : Constant
Frame rate : 23.976 fps
Color space : YUV
Chroma subsampling : 4:2:0
Bit depth : 8 bits
Scan type : Progressive
Bits/(Pixel*Frame) : 0.501
Stream size : 20.6 GiB (90%)
Title : The Way We Were (1973)
Language : English
Default : Yes
Forced : No
Audio #1
ID : 2
Format : AC-3
Format/Info : Audio Coding 3
Mode extension : CM (complete main)
Format settings, Endianness : Big
Codec ID : A_AC3
Duration : 1h 58mn
Bit rate mode : Constant
Bit rate : 192 Kbps
Channel(s) : 2 channels
Channel positions : Front: L R
Sampling rate : 48.0 KHz
Bit depth : 16 bits
Compression mode : Lossy
Stream size : 162 MiB (1%)
Title : MVO 1 channel
Language : Russian
Default : Yes
Forced : No
Audio #2
ID : 3
Format : AC-3
Format/Info : Audio Coding 3
Mode extension : CM (complete main)
Format settings, Endianness : Big
Codec ID : A_AC3
Duration : 1h 58mn
Bit rate mode : Constant
Bit rate : 192 Kbps
Channel(s) : 2 channels
Channel positions : Front: L R
Sampling rate : 48.0 KHz
Bit depth : 16 bits
Compression mode : Lossy
Stream size : 162 MiB (1%)
Title : MVO NTV+
Language : Russian
Default : No
Forced : No
Audio #3
ID : 4
Format : AC-3
Format/Info : Audio Coding 3
Mode extension : CM (complete main)
Format settings, Endianness : Big
Codec ID : A_AC3
Duration : 1h 58mn
Bit rate mode : Constant
Bit rate : 192 Kbps
Channel(s) : 2 channels
Channel positions : Front: L R
Sampling rate : 48.0 KHz
Bit depth : 16 bits
Compression mode : Lossy
Stream size : 162 MiB (1%)
Title : DVO Videoservis
Language : Russian
Default : No
Forced : No
Audio #4
ID : 5
Format : AC-3
Format/Info : Audio Coding 3
Mode extension : CM (complete main)
Format settings, Endianness : Big
Codec ID : A_AC3
Duration : 1h 58mn
Bit rate mode : Constant
Bit rate : 192 Kbps
Channel(s) : 2 channels
Channel positions : Front: L R
Sampling rate : 48.0 KHz
Bit depth : 16 bits
Compression mode : Lossy
Stream size : 162 MiB (1%)
Title : AVO Karzev
Language : Russian
Default : No
Forced : No
Audio #5
ID : 6
Format : DTS
Format/Info : Digital Theater Systems
Format profile : MA / Core
Codec ID : A_DTS
Duration : 1h 58mn
Bit rate mode : Variable
Bit rate : 1 561 Kbps / 1 510 Kbps
Channel(s) : 6 channels
Channel positions : Front: L C R, Side: L R, LFE
Sampling rate : 48.0 KHz
Bit depth : 16 bits
Compression mode : Lossless / Lossy
Title : Original
Language : English
Default : No
Forced : No
Text
ID : 7
Format : UTF-8
Codec ID : S_TEXT/UTF8
Codec ID/Info : UTF-8 Plain Text
Language : English
Default : No
Forced : No
Menu
00:00:00.000 : en:00:00:00.000
00:09:20.350 : en:00:09:20.350
00:16:30.280 : en:00:16:30.280
00:24:19.458 : en:00:24:19.458
00:29:48.953 : en:00:29:48.953
00:37:26.911 : en:00:37:26.911
00:44:11.565 : en:00:44:11.565
00:49:10.989 : en:00:49:10.989
00:54:53.289 : en:00:54:53.289
01:05:14.786 : en:01:05:14.786
01:13:32.324 : en:01:13:32.324
01:22:05.295 : en:01:22:05.295
01:30:47.817 : en:01:30:47.817
01:40:12.256 : en:01:40:12.256
01:45:36.704 : en:01:45:36.704
01:50:09.228 : en:01:50:09.228

Скриншоты



_________________
Показать сообщения:    

Текущее время: Сегодня 10:56

Часовой пояс: GMT



Вы не можете начинать темы
Вы не можете отвечать на сообщения
Вы не можете редактировать свои сообщения
Вы не можете удалять свои сообщения
Вы не можете голосовать в опросах
Вы не можете прикреплять файлы к сообщениям
Вы не можете скачивать файлы