Ивановский Торрент трекер
Яндекс.Погода
 

[Цитировать]
HUNTER

Кайл XY
Kyle XY
Сезон: 1-3 / Серии: 1-43 из 43

-Год производства: 2006-2009
Страна: США, Канада
Жанр: Фантастика, Драма, Детектив
Продолжительность: ~00:43:00
Кол-во серий/сезонов: Сезон: 1-3 / Серии: 1-43 из 43
Перевод: Профессиональный (многоголосый закадровый) AXN Sci-Fi
Субтитры: Отсутствуют-Режиссер: Майкл Робисан / Michael Robison-В ролях: Мэтт Даллас, Маргарит МакИнтайр, Брюс Томас, Эйприл Мэтсон, Жан-Люк Билодо, Крис Оливеро, Кирстен Праут, Джейми Александр, Николас Лиа, Челан Симмонс, Магда Апанович, Мартин Камминс, Леа Кейрнс, Джош Цуккерман, Дж. Эдди Пек.-Описание: Окружённый тайной, Кайл смотрит на мир глазами новорожденного ребёнка, увидит ли он, что опасности постоянно будут встречаться на его пути.
Кайл приходит в себя посреди леса. Он не знает кто он, откуда, как сюда попал. На первой же минуте его новой (новой ли) жизни он встречается лицом к лицу с гремучей змеёй. Он не умеет говорить, есть, пить, спать. Он не умеет ничего. Он — новорожденный. Кроме всего прочего у него нет пупка.
Кайл попадает в семью, где его окружают заботой и вниманием, но вокруг столько непонимания и опасностей.
-Качество видео: DVDRip
Формат видео: avi
Видео кодек: XviD
Аудио кодек: mp3
Видео: 624x352 (1.77:1), 23.976 fps, XviD MPEG-4 ~995 kbps avg, 0.19 bit/pixel
Аудио#1: 48 kHz, MPEG Layer 3, 2 ch, ~128.00 kbps avg
Аудио#2: 48 kHz, MPEG Layer 3, 2 ch, ~128.00 kbps avg-

Доп. информация

Скриншоты


MediaInfo

Код: copyText_writeLink('this.parentNode.parentNode.nextSibling.nextSibling');
General
Complete name : D:\Торенты\Kail.xy.1-3.sezoni.DVDRip\Kail.xy.1.sezon\Kail.xy.1.sezon.02.serija.iz.10.2006.XviD.DVDRip.avi
Format : AVI
Format/Info : Audio Video Interleave
File size : 390 MiB
Duration : 43mn 20s
Overall bit rate : 1 258 Kbps
Writing application : VirtualDubMod 1.5.10.2 (build 2540/release)
Writing library : VirtualDubMod build 2540/release
Video
ID : 0
Format : MPEG-4 Visual
Format profile : Advanced Simple@L5
Format settings, BVOP : 2
Format settings, QPel : No
Format settings, GMC : No warppoints
Format settings, Matrix : Default (H.263)
Muxing mode : Packed bitstream
Codec ID : XVID
Codec ID/Hint : XviD
Duration : 43mn 20s
Bit rate : 988 Kbps
Width : 624 pixels
Height : 352 pixels
Display aspect ratio : 16:9
Frame rate : 23.976 fps
Color space : YUV
Chroma subsampling : 4:2:0
Bit depth : 8 bits
Scan type : Progressive
Compression mode : Lossy
Bits/(Pixel*Frame) : 0.188
Stream size : 306 MiB (79%)
Writing library : XviD 1.1.0 (UTC 2005-11-22)
Audio #1
ID : 1
Format : MPEG Audio
Format version : Version 1
Format profile : Layer 3
Mode : Joint stereo
Mode extension : MS Stereo
Codec ID : 55
Codec ID/Hint : MP3
Duration : 43mn 20s
Bit rate mode : Constant
Bit rate : 128 Kbps
Channel(s) : 2 channels
Sampling rate : 48.0 KHz
Compression mode : Lossy
Stream size : 39.7 MiB (10%)
Alignment : Aligned on interleaves
Interleave, duration : 42 ms (1.00 video frame)
Interleave, preload duration : 504 ms
Audio #2
ID : 2
Format : MPEG Audio
Format version : Version 1
Format profile : Layer 3
Mode : Joint stereo
Mode extension : MS Stereo
Codec ID : 55
Codec ID/Hint : MP3
Duration : 43mn 20s
Bit rate mode : Constant
Bit rate : 128 Kbps
Channel(s) : 2 channels
Sampling rate : 48.0 KHz
Compression mode : Lossy
Stream size : 39.7 MiB (10%)
Alignment : Aligned on interleaves
Interleave, duration : 42 ms (1.00 video frame)
Interleave, preload duration : 504 ms

Внимание! Раздача ведётся путём добавления новых серий

Внимание! Раздача ведётся путём добавления новых серий; при каждом добавлении создётся новый торрент. Чтобы начать докачку новой серии, пользователям необходимо сделать следующее:
  • остановить скачивание,
  • удалить старый торрент у себя из клиента (старые серии удалять не надо),
  • скачать новый торрент и запустить его у себя в клиенте вместо старого, при этом указать клиенту путь в старую папку куда и должно происходить скачивание новых серий.
Ваш клиент при этом должен произвести хеширование (проверку) старой папки (если не производит сам - помогите ему сделать это), и будет докачивать только те серии которых у вас ещё нет. Старые серии при этом не удаляются, а продолжают раздаваться!
Eсли вы уже удалили старые серии, то предотвратить повторную закачку старых серий можно, отжав галочку в соответсвующих местах при запуске нового торрента. По возможности, желательно не удалять старые серии как можно дольше, чтобы релизёр не столько продолжал раздавать старые серии, а смог сконцентрироваться на новых.


Показать сообщения:    

Текущее время: 15-Дек 08:35

Часовой пояс: UTC ± 0


Вы не можете начинать темы
Вы не можете отвечать на сообщения
Вы не можете редактировать свои сообщения
Вы не можете удалять свои сообщения
Вы не можете голосовать в опросах
Вы не можете прикреплять файлы к сообщениям
Вы не можете скачивать файлы

!ВНИМАНИЕ!
Сайт не предоставляет электронные версии произведений, а занимается лишь коллекционированием и каталогизацией ссылок, присылаемых и публикуемых на форуме нашими читателями. Если вы являетесь правообладателем какого-либо представленного материала и не желаете, чтобы ссылка на него находилась в нашем каталоге, свяжитесь с нами, и мы незамедлительно удалим ее. Файлы для обмена на трекере предоставлены пользователями сайта, и администрация не несет ответственности за их содержание. Просьба не заливать файлы, защищенные авторскими правами, а также файлы нелегального содержания!