Ивановский Торрент трекер
Яндекс.Погода
 

[Цитировать]
HUNTER

Казнён в сорок первом
Год выпуска: 1968
Страна: СССР
Жанр: Документальный, Великая Отечественная война
Продолжительность: 00:20:03
Перевод: Не требуется
Русские субтитры: нет
Режиссер: Виталий Четвериков

Описание: Гитлеровские палачи ведут на казнь участников коммунистического подполья. Минск, октябрь, 1941 год. О казни Володи Щербацевич, К.И. Трусова.
Доп. информация: Информация от 2008 года.
Фильм заканчивается словами: "Давайте подпишем снимок: слева - Кирилл Иванович Трусов, справа - Володя Щербацевич. Имя девушки пока неизвестно".
Давайте дополним фильм. Девушка - Маша Брускина, 17 лет, выпускница одной из минских школ. Её имя впервые было названо в 1968 году, но в официальных публикациях она ещё 40 лет оставалась "неизвестной".
29 февраля 2008 года Минский горисполком принял решение № 424, в котором, в частности, сказано, что в целях увековечения памяти участницы Минского антифашистского подполья Марии Борисовны Брускиной Минский городской исполнительный комитет решил внести изменения в текст мемориальной доски, установленной на доме № 14 по ул. Октябрьской, и изложить его в следующей редакции: "Здесь 26 октября 1941 года фашисты казнили советских патриотов К.И. Труса, В.И. Щербацевича и М.Б. Брускину".

Релиз:
Dvdscr предоставил некто Андрей
Автор релиза: pmv

качество: Dvdscr
формат: AVI
Видео: 720x552 (1.30:1), 25 fps, XviD build 50 ~1997 kbps avg, 0.20 bit/pixel
Аудио: 48 kHz, MPEG Layer 3, 1 ch, ~96.00 kbps avg

Список выпусков/серий

1 серия

MediaInfo

Формат : AVI
Формат/Информация : Audio Video Interleave
Размер файла : 302 Мбайт
Продолжительность : 20 м.
Общий поток : 2104 Кбит/сек
Программа кодирования : VirtualDubMod 1.5.10.3 | www.virtualdub-fr.org || (build 2550/release)
Библиотека кодирования : VirtualDubMod build 2550/release
Видео
Идентификатор : 0
Формат : MPEG-4 Visual
Профиль формата : Advanced Simple@L5
Параметр BVOP формата : 2
Параметр QPel формата : Нет
Параметр GMC формата : Без точки перехода
Параметр матрицы формата : Default (H.263)
Идентификатор кодека : XVID
Идентификатор кодека/Подсказка : XviD
Продолжительность : 20 м.
Битрейт : 1998 Кбит/сек
Ширина : 720 пикселей
Высота : 552 пикселя
Соотношение сторон : 4:3
Частота кадров : 25,000 кадров/сек
Цветовое пространство : YUV
Субдискретизация насыщенности : 4:2:0
Битовая глубина : 8 бит
Тип развёртки : Прогрессивная
Метод сжатия : С потерями
Бит/(Пиксели*Кадры) : 0.201
Размер потока : 287 Мбайт (95%)
Библиотека кодирования : XviD 1.2.1 (UTC 2008-12-04)
Аудио
Идентификатор : 1
Формат : MPEG Audio
Версия формата : Version 1
Профиль формата : Layer 3
Идентификатор кодека : 55
Идентификатор кодека/Подсказка : MP3
Продолжительность : 20 м.
Вид битрейта : Постоянный
Битрейт : 96,0 Кбит/сек
Каналы : 1 канал
Частота : 48,0 КГц
Метод сжатия : С потерями
Размер потока : 13,8 Мбайт (5%)
Выравнивание : Соединение по промежуткам
Продолжительность промежутка : 40 мс. (1,00 видеокадр)
Время предзагрузки промежутка : 504 мс.

Скриншоты

Показать сообщения:    

Текущее время: 20-Сен 06:40

Часовой пояс: UTC - 1


Вы не можете начинать темы
Вы не можете отвечать на сообщения
Вы не можете редактировать свои сообщения
Вы не можете удалять свои сообщения
Вы не можете голосовать в опросах
Вы не можете прикреплять файлы к сообщениям
Вы не можете скачивать файлы

!ВНИМАНИЕ!
Сайт не предоставляет электронные версии произведений, а занимается лишь коллекционированием и каталогизацией ссылок, присылаемых и публикуемых на форуме нашими читателями. Если вы являетесь правообладателем какого-либо представленного материала и не желаете, чтобы ссылка на него находилась в нашем каталоге, свяжитесь с нами, и мы незамедлительно удалим ее. Файлы для обмена на трекере предоставлены пользователями сайта, и администрация не несет ответственности за их содержание. Просьба не заливать файлы, защищенные авторскими правами, а также файлы нелегального содержания!