Важное объявление!
У Нас Все раздачи мультитрекерные, при нуле пиров в релизах, можете смело вставать на закачку!
Статистика раздачи
Размер:     |    Зарегистрирован:     |    Скачан:     |   
Нет
 
     
 
 
Автор Сообщение

HUNTER

Стаж:
5 лет
Сообщений:
68401

Репутация: 101

[+] [-]
Вне форума [Профиль] [ЛС]

Казни / Executions
Год выпуска: 1995
Страна: Великобритания
Жанр: Документально-публицистический
Продолжительность: 00:57:54
Перевод: Одноголосый закадровый
Русские субтитры: нет
Режиссер: Дэвид Херман, Арун Кумар, Дэвид Монахэн
Сценарий: Дэвид Херман, Дэвид Монахэн
Продюсер: Дэвид Херман, Арун Кумар, Дэвид Монахэн
Описание: Документально-публицистический фильм о массовых и одиночных казнях на протяжении XX века, включая локальные и глобальные (мировые) войны.
В фильме содержатся описания инструментов казни, таких как электрический стул, газовая камера и прочих. Наряду с этим, есть много записей реальных казней. Приведена также справочная информация в виде таблиц и комментариев.
Фильм сделан явными противниками смертной казни и, поэтому, освещает эту проблему достаточно односторонне.
Фильм не рекомендован для просмотра лицам, не достигшим 18 лет, а так же людям со слабой и неуравновешенной психикой!

Сэмпл:http://multi-up.com/878684
Доп. информация: Русская звуковая дорожка оцифрована с VHS.
качество: DVDRip
формат: MKV
Видео: MPEG4 Video (H264), 720x576 (5:4), 1121 Kbps, 25.000 fps
Аудио#1: Russian, Dolby AC3, 192 Kbps, 48.0 KHz, 2 channels
Аудио#2: English, Dolby AC3, 192 Kbps, 48.0 KHz, 2 channels

MediaInfo

General
Unique ID : 234749410843564035201054232492647944716 (0xB09B178BCF79A7DF90106F6934F4920C)
Complete name : D:\Казни (Executions).mkv
Format : Matroska
Format version : Version 2
File size : 636 MiB
Duration : 57mn 54s
Overall bit rate : 1 535 Kbps
Encoded date : UTC 2013-04-25 08:00:08
Writing application : mkvmerge v4.2.0 ('No Talking') сборка от Jul 28 2010 18:38:23
Writing library : libebml v1.0.0 + libmatroska v1.0.0
Video
ID : 1
Format : AVC
Format/Info : Advanced Video Codec
Format profile : High@L3.0
Format settings, CABAC : Yes
Format settings, ReFrames : 3 frames
Codec ID : V_MPEG4/ISO/AVC
Duration : 57mn 54s
Bit rate : 1 121 Kbps
Width : 720 pixels
Height : 576 pixels
Display aspect ratio : 5:4
Frame rate mode : Constant
Frame rate : 25.000 fps
Standard : PAL
Color space : YUV
Chroma subsampling : 4:2:0
Bit depth : 8 bits
Scan type : Progressive
Bits/(Pixel*Frame) : 0.108
Stream size : 464 MiB (73%)
Title : Казни / Executions-DVDRip (1995)
Writing library : x264 core 125 r2200bm 999b753
Encoding settings : cabac=1 / ref=3 / deblock=1:0:0 / analyse=0x3:0x113 / me=hex / subme=7 / psy=1 / psy_rd=1.00:0.00 / mixed_ref=1 / me_range=16 / chroma_me=1 / trellis=1 / 8x8dct=1 / cqm=0 / deadzone=21,11 / fast_pskip=1 / chroma_qp_offset=-2 / threads=1 / lookahead_threads=1 / sliced_threads=0 / nr=0 / decimate=1 / interlaced=0 / bluray_compat=0 / constrained_intra=0 / bframes=0 / weightp=2 / keyint=250 / keyint_min=25 / scenecut=40 / intra_refresh=0 / rc=crf / mbtree=0 / crf=23.0 / qcomp=0.60 / qpmin=0 / qpmax=69 / qpstep=4 / ip_ratio=1.40 / aq=1:1.00
Language : Russian
Default : Yes
Forced : No
Audio #1
ID : 2
Format : AC-3
Format/Info : Audio Coding 3
Mode extension : CM (complete main)
Format settings, Endianness : Big
Codec ID : A_AC3
Duration : 57mn 54s
Bit rate mode : Constant
Bit rate : 192 Kbps
Channel(s) : 2 channels
Channel positions : Front: L R
Sampling rate : 48.0 KHz
Bit depth : 16 bits
Compression mode : Lossy
Stream size : 79.5 MiB (13%)
Title : Русский
Language : Russian
Default : Yes
Forced : No
Audio #2
ID : 3
Format : AC-3
Format/Info : Audio Coding 3
Mode extension : CM (complete main)
Format settings, Endianness : Big
Codec ID : A_AC3
Duration : 57mn 54s
Bit rate mode : Constant
Bit rate : 192 Kbps
Channel(s) : 2 channels
Channel positions : Front: L R
Sampling rate : 48.0 KHz
Bit depth : 16 bits
Compression mode : Lossy
Stream size : 79.5 MiB (13%)
Title : Английский
Language : English
Default : No
Forced : No

Скриншоты


_________________
Показать сообщения:    

Текущее время: Сегодня 09:57

Часовой пояс: GMT



Вы не можете начинать темы
Вы не можете отвечать на сообщения
Вы не можете редактировать свои сообщения
Вы не можете удалять свои сообщения
Вы не можете голосовать в опросах
Вы не можете прикреплять файлы к сообщениям
Вы не можете скачивать файлы