Важное объявление!
У Нас Все раздачи мультитрекерные, при нуле пиров в релизах, можете смело вставать на закачку!
Статистика раздачи
Размер:     |    Зарегистрирован:     |    Скачан:     |   
Нет
 
     
 
 
Автор Сообщение

HUNTER

Стаж:
5 лет
Сообщений:
68065

Репутация: 101

[+] [-]
Вне форума [Профиль] [ЛС]

Казино / Casino
Страна: США, Франция
Жанр: Криминальная драма
Год выпуска: 1995
Продолжительность: 02:50:57
Перевод: Профессиональный (двухголосый закадровый)
Cубтитры: русские (вкл/выкл)
Оригинальная аудиодорожка: английский
Режиссер: Мартин Скорсезе / Martin Scorsese
В ролях: Роберт Де Ниро, Шэрон Стоун, Джо Пеши,
Джеймс Вудс, Дон Риклз, Алан Кинг, Кевин Поллак,
Л. К. Джонс, Дик Смотерз, Фрэнк Винсент и др.
Описание: Умение зарабатывать деньги у Сэма Ротстина в крови, за что он и получает
прозвище "Ас". Именно это его качество становится решающим, когда боссы мафии,
открывая казино, приглашают его на должность управляющего.
Риск. Власть. Искушение. Лас-Вегас 70-х. Деньги и кровь льются рекой. Но по воле судьбы,
процветающей империи Сэма суждено трагически исчезнуть и унести за собой всё,
о чём он так мечтал...
Меню: Русскоязычное, анимированное (частично), озвученное.
Издатель диска: Кармен Видео
Тип релиза: DVD9
Контейнер: DVD-Video
Vidео: PAL 16:9 (720x576) VBR, ~4952 kbps, Auto Letterboxed
Аudiо #1: Russian (Dolby AC3, 6 ch) CBR 384 kbps, Front: L C R, Side: L R, LFE, 48.0 KHz 16 bits
Аudiо #2: English (Dolby AC3, 6 ch) CBR 384 kbps, Front: L C R, Side: L R, LFE, 48.0 KHz 16 bits

DVDInfo

Title: Casino_1995_DVD9_[rutracker.org]Size: 7.26 Gb ( 7 614 070,00 KBytes ) - DVD-9Enabled regions: 1, 2, 3, 4, 5, 6, 7, 8
VTS_01 : Play Length: 00:00:01+02:50:57+00:00:01 Video: PAL 16:9 (720x576) VBR, Auto Letterboxed Audio: Russian (Dolby AC3, 6 ch) English (Dolby AC3, 6 ch) Subtitles: Russian
VTS_02 : Play Length: 00:00:01+00:00:05+00:00:12 Video: PAL 16:9 (720x576) VBR, Auto Letterboxed Audio: Russian (Dolby AC3, 6 ch)
VTS_03 : Play Length: 00:00:01+00:00:08+00:00:01 Video: PAL 16:9 (720x576) VBR, Auto Letterboxed Audio: Russian (Dolby AC3, 2 ch)
* Menus Information *
VIDEO_TS MenuVideo: NTSC 4:3 (720x480) VBR Auto Pan&Scan, Auto LetterboxedRussian Language Unit : Title Menu
VTS_01 MenuVideo: PAL 16:9 (720x576) VBR Auto LetterboxedAudio: Not specified (Dolby AC3, 2 ch)Russian Language Unit : Root Menu
VTS_02 MenuVideo: NTSC 4:3 (720x480) VBR Auto Pan&Scan, Auto LetterboxedLanguage Unit : Subpicture Menu Angle menuLanguage Unit : Subpicture Menu Angle menuLanguage Unit : Subpicture Menu Angle menuLanguage Unit : Subpicture Menu Angle menuLanguage Unit : Subpicture Menu Angle menu
VTS_03 MenuVideo: NTSC 4:3 (720x480) VBR Auto Pan&Scan, Auto LetterboxedLanguage Unit : Subpicture Menu Angle menuLanguage Unit :
Language Unit : Root Menu Chapter (PTT) MenuLanguage Unit :
Language Unit : Root Menu Chapter (PTT) Menu

MediaInfo - VTS_01_1.VOB

ОбщееПолное имя : D:\Casino_1995_DVD9_[rutracker.org]\VIDEO_TS\VTS_01_1.VOBФормат : MPEG-PSРазмер файла : 1024 МбайтПродолжительность : 24 м.Режим общего битрейта : ПеременныйОбщий поток : 5836 Кбит/сек
ВидеоИдентификатор : 224 (0xE0)Формат : MPEG VideoВерсия формата : Version 2Профиль формата : Main@MainПараметр BVOP формата : ДаПараметр матрицы формата : ВыборочнаяПараметр GOP формата : VariableПродолжительность : 24 м.Вид битрейта : ПеременныйБитрейт : 4952 Кбит/секШирина : 720 пикселейВысота : 576 пикселейСоотношение сторон : 16:9Частота кадров : 25,000 кадров/секСтандарт вещания : PALЦветовое пространство : YUVСубдискретизация насыщенности : 4:2:0Битовая глубина : 8 битТип развёртки : ЧересстрочнаяМетод сжатия : С потерямиБит/(Пиксели*Кадры) : 0.478Временной код первого кадра : 00:00:00:00Оригинал временного кода : Group of pictures headerРазмер потока : 869 Мбайт (85%)
Аудио #1Идентификатор : 189 (0xBD)-128 (0x80)Формат : AC-3Формат/Информация : Audio Coding 3Расширение режима : CM (complete main)Параметр Endianness формата : BigРежим смешивания : DVD-VideoПродолжительность : 24 м.Вид битрейта : ПостоянныйБитрейт : 384 Кбит/секКаналы : 6 каналовРасположение каналов : Front: L C R, Side: L R, LFEЧастота : 48,0 КГцБитовая глубина : 16 битМетод сжатия : С потерямиРазмер потока : 67,4 Мбайт (7%)
Аудио #2Идентификатор : 189 (0xBD)-129 (0x81)Формат : AC-3Формат/Информация : Audio Coding 3Расширение режима : CM (complete main)Параметр Endianness формата : BigРежим смешивания : DVD-VideoПродолжительность : 24 м.Вид битрейта : ПостоянныйБитрейт : 384 Кбит/секКаналы : 6 каналовРасположение каналов : Front: L C R, Side: L R, LFEЧастота : 48,0 КГцБитовая глубина : 16 битМетод сжатия : С потерямиРазмер потока : 67,4 Мбайт (7%)
ТекстИдентификатор : 189 (0xBD)-32 (0x20)Формат : RLEФормат/Информация : Run-length encodingРежим смешивания : DVD-VideoПродолжительность : 24 м.
Меню

Скриншоты меню

Скриншоты


Дополнительная информация


Раздача: По возможности!!!

_________________
Показать сообщения:    

Текущее время: Сегодня 15:03

Часовой пояс: GMT



Вы не можете начинать темы
Вы не можете отвечать на сообщения
Вы не можете редактировать свои сообщения
Вы не можете удалять свои сообщения
Вы не можете голосовать в опросах
Вы не можете прикреплять файлы к сообщениям
Вы не можете скачивать файлы