Важное объявление!
У Нас Все раздачи мультитрекерные, при нуле пиров в релизах, можете смело вставать на закачку!
 
Автор Сообщение

сеня

Стаж:
4 года 10 месяцев
Сообщений:
39

Репутация: 1

[+] [-]
Вне форума [Профиль] [ЛС]

Год выпуска: 2005
Страна: США
Жанр: мелодрама, комедия
Продолжительность: 01:51:36
Перевод: Профессиональный (дублированный)
Cубтитры: русский, английский
Оригинальная аудиодорожка: английский
Режиссер: Лассе Халльстрем / Lasse Hallstrom
В ролях: Хит Леджер, Сиенна Миллер, Джереми Айронс, Оливер Платт, Лина Олин, Омид Джалили, Стивен Гриф, Кен Скотт, Хелен МакКрори, Ли Лоусон...
Описание: Впервые легендарный Казанова встретил достойную соперницу в амурных делах — венецианскую красавицу Франческу. Ей удается неслыханное: устоять перед неотразимыми чарами знаменитого соблазнителя… Ему приходится применить весь арсенал приемов, рисковать своей жизнью и репутацией ради ее благосклонности…- -Источник BDRip-AVC 1080p
Тип релиза: HDRip-AVC
Контейнер: MKV
Видео: 1024x432 (16:9), 23.976 fps, H264 ~ 1901 kbps avg, 0.179 bit/pixel
Аудио 1: Русский 48 kHz, AC-3, 6 ch, 448.00 kbps Constant
Аудио 2: Английский 48 kHz, AC-3, 6 ch, 448.00 kbps Constant
Формат субтитров: SoftSub (srt)

MediaInfo

Общее
Полное имя : Casanova.2005.HDRip-AVC.D.O.mkv
Формат : Matroska
Версия формата : Version 2
Размер файла : 2,18 Гбайт
Продолжительность : 1 ч. 51 м.
Общий поток : 2798 Кбит/сек
Название фильма : Casanova.2005.HDRip-AVC.D.O
Дата кодирования : UTC 2011-09-05 10:15:09
Программа кодирования : mkvmerge v4.1.1 ('Bouncin' Back') сборка от Jul 3 2010 22:54:08
Библиотека кодирования : libebml v1.0.0 + libmatroska v1.0.0
Видео
Идентификатор : 1
Формат : AVC
Формат/Информация : Advanced Video Codec
Профиль формата : High@L4.1
Параметр CABAC формата : Да
Параметр ReFrames формата : 4 кадра
Идентификатор кодека : V_MPEG4/ISO/AVC
Продолжительность : 1 ч. 51 м.
Битрейт : 1901 Кбит/сек
Ширина : 1024 пикс.
Высота : 432 пикс.
Соотношение сторон : 2,35:1
Частота кадров : 23,976 кадр/сек
Цветовое пространство : YUV
Подвыборка цветности : 4:2:0
Битовая глубина : 8 бит
Тип развёртки : Прогрессивная
Бит/(Пиксели*Кадры) : 0.179
Размер потока : 1,44 Гбайт (66%)
Заголовок : Источник BDRip.720p
Библиотека кодирования : x264 core 114 r1913 5fd3dce
Настройки программы : cabac=1 / ref=4 / deblock=1:-2:-1 / analyse=0x3:0x113 / me=umh / subme=9 / psy=1 / psy_rd=1.00:0.10 / mixed_ref=1 / me_range=32 / chroma_me=1 / trellis=1 / 8x8dct=1 / cqm=0 / deadzone=21,11 / fast_pskip=1 / chroma_qp_offset=-3 / threads=3 / sliced_threads=0 / nr=0 / decimate=1 / interlaced=0 / constrained_intra=0 / bframes=6 / b_pyramid=2 / b_adapt=1 / b_bias=0 / direct=3 / weightb=1 / open_gop=0 / weightp=0 / keyint=250 / keyint_min=23 / scenecut=40 / intra_refresh=0 / rc_lookahead=80 / rc=2pass / mbtree=1 / bitrate=1901 / ratetol=1.0 / qcomp=0.60 / qpmin=0 / qpmax=69 / qpstep=4 / cplxblur=20.0 / qblur=0.5 / ip_ratio=1.40 / aq=1:1.00
Язык : English
Аудио #1
Идентификатор : 2
Формат : AC-3
Формат/Информация : Audio Coding 3
Расширение режима : CM (complete main)
Идентификатор кодека : A_AC3
Продолжительность : 1 ч. 51 м.
Вид битрейта : Постоянный
Битрейт : 448 Кбит/сек
Каналы : 6 каналов
Расположение каналов : Front: L C R, Side: L R, LFE
Частота : 48,0 КГц
Битовая глубина : 16 бит
Метод сжатия : С потерями
Размер потока : 358 Мбайт (16%)
Заголовок : Обьёмный звук 5,1
Язык : Russian
Аудио #2
Идентификатор : 3
Формат : AC-3
Формат/Информация : Audio Coding 3
Расширение режима : CM (complete main)
Идентификатор кодека : A_AC3
Продолжительность : 1 ч. 51 м.
Вид битрейта : Постоянный
Битрейт : 448 Кбит/сек
Каналы : 6 каналов
Расположение каналов : Front: L C R, Side: L R, LFE
Частота : 48,0 КГц
Битовая глубина : 16 бит
Метод сжатия : С потерями
Размер потока : 358 Мбайт (16%)
Заголовок : Обьёмный звук 5,1
Язык : English
Текст #1
Идентификатор : 4
Формат : UTF-8
Идентификатор кодека : S_TEXT/UTF8
Идентификатор кодека/Информация : UTF-8 Plain Text
Заголовок : Sub
Язык : Russian
Текст #2
Идентификатор : 5
Формат : UTF-8
Идентификатор кодека : S_TEXT/UTF8
Идентификатор кодека/Информация : UTF-8 Plain Text
Заголовок : Sub
Язык : English
Меню
00:00:00.000 : ru:
00:05:00.000 : :
00:10:00.000 : :
00:15:00.000 : :
00:20:00.000 : :
00:25:00.000 : :
00:30:00.000 : :
00:35:00.000 : :
00:40:00.000 : :
00:45:00.000 : :
00:50:00.000 : :
00:55:00.000 : :
01:00:00.000 : :
01:05:00.000 : :
01:10:00.000 : :
01:15:00.000 : :
01:20:00.000 : :
01:25:00.000 : :
01:30:00.000 : :
01:35:00.000 : :
01:40:00.000 : :
01:45:00.000 : :

Скриншоты

Показать сообщения:    

Текущее время: Сегодня 03:32

Часовой пояс: GMT



Вы не можете начинать темы
Вы не можете отвечать на сообщения
Вы не можете редактировать свои сообщения
Вы не можете удалять свои сообщения
Вы не можете голосовать в опросах
Вы не можете прикреплять файлы к сообщениям
Вы не можете скачивать файлы