Ивановский Торрент трекер
Яндекс.Погода
 

[Цитировать]
HUNTER

Каена: Пророчество / Kaena: La prophetie / Kaena: The Prophecy
Страна: Франция, Канада
Жанр: мультфильм, фантастика, фэнтези, приключения, семе
Продолжительность: 01:30:41
Год выпуска: 2003
Перевод: Профессиональный (многоголосый закадровый)
Русские субтитры: есть
Режиссёр: Крис Делапорте / Chris Delaporte, Паскаль Пинон / Pascal Pinon
Роли озвучивали: Сесиль Де Франс, Микаэль Лонсдаль, Виктория Абриль, Франсуа Сьенер, Жан-Мишель Фарси, Рэймонд Аквавива, Жан Пиа, Кирстен Данст, Ричард Харрис, Анжелика Хьюстон
Описание: На вершине Аксиса, огромного вертикального мира, где-то за облаками находится деревня Каены. Никто из жителей не покидал ее пределов. Но девушка считает, что рядом есть еще миры и что сама она другая! Бунтарский дух влечет Каену в неизведанное. Наперекор табу Великого Жреца она пускается в отчаянный поход. И попадает в странный мир с невиданными существами!.. Ей суждено проникнуть в тайну, которой много сотен лет!
Качество: Web-DL 1080p
Формат: MKV
Видео: 1912x1080 , 23,976 fps, ~5043 kbps avg, 0.107 bit/pixel
Аудио: 48 kHz, AC3 Dolby Digital, 3/2 (L,C,R,l,r) + LFE ch, ~448 kbps, русский
Аудио 2: 48 kHz, AC3 Dolby Digital, 3/2 (L,C,R,l,r) + LFE ch, ~448 kbps, английский
Субтитры: русские, русские - Kivi, английские (SDH)

Подробные технические данные

ОбщееУникальный идентификатор : 217885244544996141551952813603586342108 (0xA3EB2BF3EFE423DCAE9924EFE5487CDC)Полное имя : D:\Dvar\2003 - Kaena - The Prophecy (1080p HD)\2003 - Kaena - The Prophecy (1080p HD).mkvФормат : MatroskaВерсия формата : Version 4 / Version 2Размер файла : 3,84 ГбайтПродолжительность : 1 ч. 30 м.Общий поток : 6059 Кбит/секНазвание фильма : Kaena - The Prophecy (1080p HD)Дата кодирования : UTC 2014-07-24 20:08:20Программа кодирования : mkvmerge v6.0.0 ('Coming Up For Air') built on Jan 20 2013 09:52:00Библиотека кодирования : libebml v1.3.0 + libmatroska v1.4.0
ВидеоИдентификатор : 1Формат : AVCФормат/Информация : Advanced Video CodecПрофиль формата : High@L4.0Параметр CABAC формата : ДаПараметр ReFrames формата : 4 кадраИдентификатор кодека : V_MPEG4/ISO/AVCПродолжительность : 1 ч. 30 м.Битрейт : 5043 Кбит/секШирина : 1912 пикселейВысота : 1028 пикселейСоотношение сторон : 1,85:1Режим частоты кадров : ПостоянныйЧастота кадров : 23,976 кадра/секЦветовое пространство : YUVСубдискретизация насыщенности : 4:2:0Битовая глубина : 8 битТип развёртки : ПрогрессивнаяБит/(Пиксели*Кадры) : 0.107Размер потока : 3,19 Гбайт (83%)Язык : EnglishDefault : ДаForced : НетОсновные цвета : BT.709Характеристики трансфера : BT.709Коэффициенты матрицы : BT.709
Аудио #1Идентификатор : 2Формат : AC-3Формат/Информация : Audio Coding 3Расширение режима : CM (complete main)Параметр Endianness формата : BigИдентификатор кодека : A_AC3Продолжительность : 1 ч. 30 м.Вид битрейта : ПостоянныйБитрейт : 448 Кбит/секКаналы : 6 каналовРасположение каналов : Front: L C R, Side: L R, LFEЧастота : 48,0 КГцБитовая глубина : 16 битМетод сжатия : С потерямиРазмер потока : 291 Мбайт (7%)Заголовок : MVOЯзык : RussianDefault : ДаForced : Нет
Аудио #2Идентификатор : 3Формат : AC-3Формат/Информация : Audio Coding 3Расширение режима : CM (complete main)Параметр Endianness формата : BigИдентификатор кодека : A_AC3Продолжительность : 1 ч. 30 м.Вид битрейта : ПостоянныйБитрейт : 448 Кбит/секКаналы : 6 каналовРасположение каналов : Front: L C R, Side: L R, LFEЧастота : 48,0 КГцБитовая глубина : 16 битМетод сжатия : С потерямиРазмер потока : 291 Мбайт (7%)Заголовок : ENGЯзык : EnglishDefault : НетForced : Нет
Текст #1Идентификатор : 4Формат : UTF-8Идентификатор кодека : S_TEXT/UTF8Идентификатор кодека/Информация : UTF-8 Plain TextЗаголовок : Rus SubЯзык : RussianDefault : НетForced : Нет
Текст #2Идентификатор : 5Формат : UTF-8Идентификатор кодека : S_TEXT/UTF8Идентификатор кодека/Информация : UTF-8 Plain TextЗаголовок : Rus Sub - KiviЯзык : RussianDefault : НетForced : Нет
Текст #3Идентификатор : 6Формат : UTF-8Идентификатор кодека : S_TEXT/UTF8Идентификатор кодека/Информация : UTF-8 Plain TextЗаголовок : Eng Sub - SDHЯзык : EnglishDefault : НетForced : Нет
Меню00:00:00.000 : en:START00:05:26.084 : en:KAENA00:08:37.084 : en:SHARKEN ATTACK00:10:13.084 : en:ILPO00:13:10.084 : en:ESSY AND THE WORM00:15:35.084 : en:OFFERING TO THE GODS00:20:04.084 : en:BLASPHEMY00:24:15.084 : en:ONE GIRL, ONE HERETIC00:27:00.084 : en:ANOTHER HARVEST... OR ELSE00:29:45.084 : en:"FIND HER!"00:31:35.084 : en:A SURPRISING SPECIMEN00:35:05.084 : en:OPAZ00:38:54.084 : en:THE BLUE SUN00:40:15.084 : en:ORIGINS00:43:10.084 : en:TREEQUAKE00:47:14.084 : en:LYING PRIEST00:49:08.084 : en:"WE GET TO FLY?"00:52:27.084 : en:IMPURE ONES00:54:43.084 : en:MARAUDER00:58:34.084 : en:HER DYING WORLD01:01:28.084 : en:WELL OF THE GODS01:04:38.084 : en:THE TRUTH01:07:12.084 : en:THE SELENITES01:09:51.084 : en:VECANDI01:11:55.084 : en:OPAZ FALLS01:14:44.084 : en:KAENA VS. THE QUEEN01:18:55.084 : en:PLANETFALL01:22:26.084 : en:THE NEW WORLD

Скриншоты

Показать сообщения:    

Текущее время: 22-Окт 07:10

Часовой пояс: UTC - 1


Вы не можете начинать темы
Вы не можете отвечать на сообщения
Вы не можете редактировать свои сообщения
Вы не можете удалять свои сообщения
Вы не можете голосовать в опросах
Вы не можете прикреплять файлы к сообщениям
Вы не можете скачивать файлы

!ВНИМАНИЕ!
Сайт не предоставляет электронные версии произведений, а занимается лишь коллекционированием и каталогизацией ссылок, присылаемых и публикуемых на форуме нашими читателями. Если вы являетесь правообладателем какого-либо представленного материала и не желаете, чтобы ссылка на него находилась в нашем каталоге, свяжитесь с нами, и мы незамедлительно удалим ее. Файлы для обмена на трекере предоставлены пользователями сайта, и администрация не несет ответственности за их содержание. Просьба не заливать файлы, защищенные авторскими правами, а также файлы нелегального содержания!