Ивановский Торрент трекер
Яндекс.Погода
 

[Цитировать]
HUNTER

Каена: Пророчество
Kaena: The Prophecy
Год выпуска: 2003
Страна: Франция, Канада
Жанр: мультфильм, фантастика, фэнтези, приключения, семейный
Продолжительность: 01:30:41
Перевод: Профессиональный (Многоголосый закадровый)
русские субтитры: есть-Режиссёр: Крис Делапорте : Chris Delaporte, Паскаль Пинон : Pascal Pinon
В главных ролях: Сесиль Де Франс, Микаэль Лонсдаль, Виктория Абриль, Франсуа Сьенер, Жан-Мишель Фарси, Рэймонд Аквавива, Жан Пиа, Кирстен Данст, Ричард Харрис, Анжелика Хьюстон-Описание: На вершине Аксиса, огромного вертикального мира, где-то за облаками находится деревня Каены. Никто из жителей не покидал ее пределов. Но девушка считает, что рядом есть еще миры и что сама она другая! Бунтарский дух влечет Каену в неизведанное. Наперекор табу Великого Жреца она пускается в отчаянный поход. И попадает в странный мир с невиданными существами!.. Ей суждено проникнуть в тайну, которой много сотен лет!- релиз: -- За исходник WEB-DL спасибо Maidaneh
- Работа с WEB-DL и звуком -Azureus--Качество: WEB-DL 720p
Формат: MKV
Видео кодек: AVC
Аудио кодек: AC3
Видео: 1280x688 , 23,976 fps, ~3 839 kbps avg, 0.182 bit/pixel
Аудио #1: [RUS] 48 kHz, AC3 Dolby Digital, 3/2 (L,C,R,l,r) + LFE ch, ~448 kbps
Аудио #2: [ENG] 48 kHz, AC3 Dolby Digital, 3/2 (L,C,R,l,r) + LFE ch, ~448 kbps
субтитры: русские, русские - Kivi, английские (SDH)
навигация по главам: 28 глав (именные) MediaInfo
Общее
Уникальный идентификатор : 233242151115154517792828949058697867341 (0xAF78CDE76E2B5C6B85A73DAE2D14B04D)
Полное имя : D:\Im\Каена\Kaena - The Prophecy.2003.WEB-DL 720p.mkv
Формат : Matroska
Версия формата : Version 4 / Version 2
Размер файла : 3,06 Гбайт
Продолжительность : 1 ч. 30 м.
Общий поток : 4831 Кбит/сек
Название фильма : Kaena - The Prophecy.2003.WEB-DL 720p -Azureus-
Дата кодирования : UTC 2014-07-10 16:17:11
Программа кодирования : mkvmerge v7.0.0 ('Where We Going') 32bit built on Jun 9 2014 15:08:34
Библиотека кодирования : libebml v1.3.0 + libmatroska v1.4.1
DURATION : 01:30:41.568000000
NUMBER_OF_FRAMES : 170049
NUMBER_OF_BYTES : 304727808
_STATISTICS_WRITING_APP : mkvmerge v7.0.0 ('Where We Going') 32bit built on Jun 9 2014 15:08:34
_STATISTICS_WRITING_DATE_UTC : 2014-07-10 16:17:11
_STATISTICS_TAGS : BPS DURATION NUMBER_OF_FRAMES NUMBER_OF_BYTES
Видео
Идентификатор : 1
Формат : AVC
Формат/Информация : Advanced Video Codec
Профиль формата : High@L3.1
Параметр CABAC формата : Нет
Параметр ReFrames формата : 2 кадра
Идентификатор кодека : V_MPEG4/ISO/AVC
Продолжительность : 1 ч. 30 м.
Битрейт : 3839 Кбит/сек
Ширина : 1280 пикселей
Высота : 688 пикселей
Соотношение сторон : 1,85:1
Режим частоты кадров : Постоянный
Частота кадров : 23,976 кадра/сек
Цветовое пространство : YUV
Субдискретизация насыщенности : 4:2:0
Битовая глубина : 8 бит
Тип развёртки : Прогрессивная
Бит/(Пиксели*Кадры) : 0.182
Размер потока : 2,43 Гбайт (79%)
Язык : English
Default : Да
Forced : Нет
Основные цвета : BT.709
Характеристики трансфера : BT.709
Коэффициенты матрицы : BT.709
Аудио #1
Идентификатор : 2
Формат : AC-3
Формат/Информация : Audio Coding 3
Расширение режима : CM (complete main)
Параметр Endianness формата : Big
Идентификатор кодека : A_AC3
Продолжительность : 1 ч. 30 м.
Вид битрейта : Постоянный
Битрейт : 448 Кбит/сек
Каналы : 6 каналов
Расположение каналов : Front: L C R, Side: L R, LFE
Частота : 48,0 КГц
Битовая глубина : 16 бит
Метод сжатия : С потерями
Размер потока : 291 Мбайт (9%)
Заголовок : MVO
Язык : Russian
Default : Да
Forced : Нет
Аудио #2
Идентификатор : 3
Формат : AC-3
Формат/Информация : Audio Coding 3
Расширение режима : CM (complete main)
Параметр Endianness формата : Big
Идентификатор кодека : A_AC3
Продолжительность : 1 ч. 30 м.
Вид битрейта : Постоянный
Битрейт : 448 Кбит/сек
Каналы : 6 каналов
Расположение каналов : Front: L C R, Side: L R, LFE
Частота : 48,0 КГц
Битовая глубина : 16 бит
Метод сжатия : С потерями
Размер потока : 291 Мбайт (9%)
Заголовок : ENG
Язык : English
Default : Нет
Forced : Нет
Текст #1
Идентификатор : 4
Формат : UTF-8
Идентификатор кодека : S_TEXT/UTF8
Идентификатор кодека/Информация : UTF-8 Plain Text
Заголовок : Rus Sub
Язык : Russian
Default : Нет
Forced : Нет
Текст #2
Идентификатор : 5
Формат : UTF-8
Идентификатор кодека : S_TEXT/UTF8
Идентификатор кодека/Информация : UTF-8 Plain Text
Заголовок : Rus Sub - Kivi
Язык : Russian
Default : Нет
Forced : Нет
Текст #3
Идентификатор : 6
Формат : UTF-8
Идентификатор кодека : S_TEXT/UTF8
Идентификатор кодека/Информация : UTF-8 Plain Text
Заголовок : Eng Sub - SDH
Язык : English
Default : Нет
Forced : Нет
Меню
00:00:00.000 : en:START
00:05:26.084 : en:KAENA
00:08:37.084 : en:SHARKEN ATTACK
00:10:13.084 : en:ILPO
00:13:10.084 : en:ESSY AND THE WORM
00:15:35.084 : en:OFFERING TO THE GODS
00:20:04.084 : en:BLASPHEMY
00:24:15.084 : en:ONE GIRL, ONE HERETIC
00:27:00.084 : en:ANOTHER HARVEST... OR ELSE
00:29:45.084 : en:"FIND HER!"
00:31:35.084 : en:A SURPRISING SPECIMEN
00:35:05.084 : en:OPAZ
00:38:54.084 : en:THE BLUE SUN
00:40:15.084 : en:ORIGINS
00:43:10.084 : en:TREEQUAKE
00:47:14.084 : en:LYING PRIEST
00:49:08.084 : en:"WE GET TO FLY?"
00:52:27.084 : en:IMPURE ONES
00:54:43.084 : en:MARAUDER
00:58:34.084 : en:HER DYING WORLD
01:01:28.084 : en:WELL OF THE GODS
01:04:38.084 : en:THE TRUTH
01:07:12.084 : en:THE SELENITES
01:09:51.084 : en:VECANDI
01:11:55.084 : en:OPAZ FALLS
01:14:44.084 : en:KAENA VS. THE QUEEN
01:18:55.084 : en:PLANETFALL
01:22:26.084 : en:THE NEW WORLD
____________________________________________
Стою на раздаче до 5 дней.
Просьба скачавшим как можно дольше не покидать раздачу!
ВСЕМ ПРИЯТНОГО ПРОСМОТРА!_________________________________________
Показать сообщения:    

Текущее время: 17-Окт 19:12

Часовой пояс: UTC - 1


Вы не можете начинать темы
Вы не можете отвечать на сообщения
Вы не можете редактировать свои сообщения
Вы не можете удалять свои сообщения
Вы не можете голосовать в опросах
Вы не можете прикреплять файлы к сообщениям
Вы не можете скачивать файлы

!ВНИМАНИЕ!
Сайт не предоставляет электронные версии произведений, а занимается лишь коллекционированием и каталогизацией ссылок, присылаемых и публикуемых на форуме нашими читателями. Если вы являетесь правообладателем какого-либо представленного материала и не желаете, чтобы ссылка на него находилась в нашем каталоге, свяжитесь с нами, и мы незамедлительно удалим ее. Файлы для обмена на трекере предоставлены пользователями сайта, и администрация не несет ответственности за их содержание. Просьба не заливать файлы, защищенные авторскими правами, а также файлы нелегального содержания!