Ивановский Торрент трекер
Яндекс.Погода
Статистика раздачи
Размер:  11.6 GB   |    Зарегистрирован:  2 года 4 месяца   |    Скачан:  0 раз

Полного источника не было: Никогда

 
     
 
 
 

[Цитировать]
HUNTER

И снова Анискин. 3 серии
Страна: СССР
Студия: Киностудия им. М.Горького
Жанр: Детектив
Год выпуска: 1977
Продолжительность: 01:05:00 серия
Перевод: Не требуется
Cубтитры: нет
Оригинальная аудиодорожка: русский
Режиссер: Михаил Жаров, Виталий Иванов
В ролях: Михаил Жаров, Татьяна Пельтцер, Лидия Смирнова, Роман Ткачук, Юрий Пузырев, Никита Подгорный, Борис Щербаков, Валерий Носик, Александр Белявский, Маргарита Фомина, Лев Борисов, Виктор Борцов, Виктор Володин, Анна Жарова, Вадим Захарченко, Инна Кара-Моско, Люсьена Овчинникова, Валентина Березуцкая, Анастасия Зуева, Варвара Обухова, Валерий Малышев, Семен (Соломон) Соколовский, Станислав Чекан, Вадим Мадянов
Описание:
Заключительный фильм трилогии: "Деревенский детектив" (1968), "Анискин и Фантомас" (1974), "И снова Анискин".
Из сельского музея похищены старинные предметы прикладного искусства. Под подозрение попадают сразу несколько местных жителей. После тщательного расследования обстоятельств дела о музейной краже Анискин пришёл к выводу, что человек, пытавшийся скрыться с похищенными ценностями на речном пароходе, и есть вор...
Семпл: https://yadi.sk/d/VMeLdkRNiC5fm
Качество видео: HDTV 1080i
Формат видео: TS
Видео: H264; 1920x1080 (16:9); 25.000 fps; ~7 830 Kbps
Аудио: MPEG Audio Version 1 Layer 2, 48000Hz, 2 channels stereo 192 Кбит/сек

MediaInfo

General
ID : 1 (0x1)
Complete name : Q:\1_DISK_C\И снова Анискин. 3 серии_1080i_[RUTRACKER.ORG]_by kuzmichm2196\И снова Анискин. 1 Серия.ts
Format : MPEG-TS
File size : 3.89 GiB
Duration : 1h 5mn
Overall bit rate mode : Variable
Overall bit rate : 8 441 Kbps
Video
ID : 2292 (0x8F4)
Menu ID : 1 (0x1)
Format : AVC
Format/Info : Advanced Video Codec
Format profile : High@L4.0
Format settings, CABAC : Yes
Format settings, ReFrames : 4 frames
Codec ID : 27
Duration : 1h 5mn
Bit rate : 7 830 Kbps
Width : 1 920 pixels
Height : 1 080 pixels
Display aspect ratio : 16:9
Frame rate : 25.000 fps
Color space : YUV
Chroma subsampling : 4:2:0
Bit depth : 8 bits
Scan type : MBAFF
Bits/(Pixel*Frame) : 0.151
Stream size : 3.60 GiB (93%)
Audio
ID : 2295 (0x8F7)
Menu ID : 1 (0x1)
Format : MPEG Audio
Format version : Version 1
Format profile : Layer 2
Mode : Joint stereo
Mode extension : Intensity Stereo + MS Stereo
Codec ID : 3
Duration : 1h 5mn
Bit rate mode : Constant
Bit rate : 192 Kbps
Channel(s) : 2 channels
Sampling rate : 48.0 KHz
Compression mode : Lossy
Stream size : 90.5 MiB (2%)
Language : English
Релиз группы:
[iv-torrents.ru].t47956.torrent
Торрент: Зарегистрирован [ 2015-08-03 13:36 ] · A1964AC28132D71E6A21B3AEE14506B30CB2D5CC

Скачать .torrent

Скачать

59 KB

Статус: проверено
Скачан: 0 раз
Размер: 11.6 GB
terms.php


Показать сообщения:    

Текущее время: 15-Дек 18:07

Часовой пояс: UTC ± 0


Вы не можете начинать темы
Вы не можете отвечать на сообщения
Вы не можете редактировать свои сообщения
Вы не можете удалять свои сообщения
Вы не можете голосовать в опросах
Вы не можете прикреплять файлы к сообщениям
Вы можете скачивать файлы

!ВНИМАНИЕ!
Сайт не предоставляет электронные версии произведений, а занимается лишь коллекционированием и каталогизацией ссылок, присылаемых и публикуемых на форуме нашими читателями. Если вы являетесь правообладателем какого-либо представленного материала и не желаете, чтобы ссылка на него находилась в нашем каталоге, свяжитесь с нами, и мы незамедлительно удалим ее. Файлы для обмена на трекере предоставлены пользователями сайта, и администрация не несет ответственности за их содержание. Просьба не заливать файлы, защищенные авторскими правами, а также файлы нелегального содержания!