Ивановский Торрент трекер
Яндекс.Погода
 

[Цитировать]
HUNTER

И грянул шторм
The Finest Hours
- Год выпуска: 2016
Страна: США (Walt Disney Pictures)
Жанр: Боевик, Триллер, Драма, История
Продолжительность: 01:57:21
Перевод: Профессиональный дублированный - Лицензия
Режиссер: Крэйг Гиллеспи / Craig Gillespie-Роли исполняли (дублировали):

Bernie Webber - Крис Пайн (Александр Койгеров)
Ray Sybert - Кейси Аффлек (Андрей Кузнецов)
Richard Livesey - Бен Фостер (Сергей Мардарь)
Daniel Cluff - Эрик Бана (Валерий Соловьев)
Miriam Webber - Холлидей Грейнджер (Екатерина Тихомирова)
Wallace Quirey - Джон Ортис (Максим Сергеев)
Andy Fitzgerald - Кайл Галлнер (Андрей Зайцев)
Ervin Maske - Джон Магаро (Александр Быковский)
Frank Fauteux - Грэм МакТавиш (Александр Марушев)
D.A. Brown - Майкл Рэймонд-Джеймс (Артем Бордовский)
Mel Gouthro - Бо Напп
-Описание: Сюжет фильма основан на реальных событиях, произошедших в 1952 году, когда сотрудники береговой охраны в самый разгар шторма, используя деревянные моторные лодки, пытались спасти экипаж двух нефтяных танкеров.-Премьера: 27 января 2016 (4 февраля 2016)
Кассовые сборы: $52 064 558

. .
За исходный BD 3D Remux спасибо и Dreamcatcher!

Знаете ли вы, что...

  • Кайл Галлнер и Майкл Реймонд-Джеймс снимались в популярном телесериале «Ходячие мертвецы» (2010) телеканала «AMC», однако в разных сезонах. Галлнер исполнял роль Зака в 4 сезоне, а Реймонд-Джеймс сыграл Дэйва во 2 сезоне.
  • Съёмки фильма проходили в основном в городе Чатем, штат Массачусетс.
  • Полицейский автомобиль старой модели, использованный в фильме, одолжили у городской полиции Орлеана в штате Массачусетс.
  • В 2011 году Береговая охрана США назвала 46-метровый высокоскоростной катер нового проекта в честь старшины шлюпки CG 36500 Бернарда Уэббера. Катера этого проекта стали первыми судами, которые называют в честь военнослужащих рядового и сержантского состава.
  • Бен Фостер и Эрик Бана сыграли «морских котиков» в фильме «Уцелевший» (2013), а Кайл Галлнер исполнил роль морского пехотинца в фильме «Снайпер» (2014).
  • Крис Пайн и Эрик Бана вместе снялись в фильме «Звёздный путь» (2009).
  • Крис Пайн и Холлидей Грейнджер уже снимались в фильмах студии «Disney», Пайн — в фильме «Чем дальше в лес…» (2014) и «Дневники принцессы 2: Как стать королевой» (2004), а Грейнджер — в «Золушке» (2015).
  • Кейси Аффлек и Джош Стюарт вместе работали в фильме «Интерстеллар» (2014). Стюарт на экране не появлялся, но озвучивал робота КЕЙС.
  • Кейси Аффлек и Бен Фостер вместе работали в фильме «В бегах» (2013).
  • Лодка CG 36500, спущенная на воду судном береговой охраны для спасения экипажа танкера «Пендлтон», до сих пор поддерживается в идеальном состоянии в Рок Харборе, Орлеан, штат Массачусетс.
Качество: BDRip (by Ash61)
Контейнер: MKV
Формат 3D: Half OverUnder / Вертикальная анаморфная стереопара
Порядок ракурсов: левый ракурс первый-Видео: AVC / 1920х1080p / 23,976 fps / 10.8 Mbps
Аудио:
#1 - Русский / AC3 / 48 KHz / 5.1 ch / 640 Kbps (Дубляж - BD Eur)
#2 - Украинский / AC3 / 48 KHz / 2 ch / 192 Kbps (Дубляж - iTunes)
#3 - Английский / AC3 / 48 KHz / 5.1 ch / 640 Kbps (Original - BD 3D)
Субтитры (SRT):
Вшитые (softsub):
#1 - Русские Форсированные (включены по умолчанию)
#2 - Русские Полные
#3 - Украинские Полные
#4 - English Full
#5 - English SDH
#6 - English SDH-Colored
Внешние (UTF-8):
#1 - Русские Форсированные (включены по умолчанию)

MediaInfo

General
Unique ID : 244091742716804845985505344624716115865 (0xB7A25C11DD66AA038FAFB90B273F6F99)
Complete name : E:\TheFinestHours(2016)3D-halfOU(Ash61)\TheFinestHours(2016)3D-halfOU(Ash61).mkv
Format : Matroska
Format version : Version 2
File size : 10.2 GiB
Duration : 1h 57mn
Overall bit rate : 12.5 Mbps
Movie name : И грянул шторм / The Finest Hours (2016) в 3Д
Encoded date : UTC 2016-06-08 20:03:56
Writing application : mkvmerge v5.8.0 ('No Sleep / Pillow') built on Sep 2 2012 15:37:04
Writing library : libebml v1.2.3 + libmatroska v1.3.0
Video
ID : 1
Format : AVC
Format/Info : Advanced Video Codec
Format profile : High@L4.1
Format settings, CABAC : Yes
Format settings, ReFrames : 4 frames
Codec ID : V_MPEG4/ISO/AVC
Duration : 1h 57mn
Bit rate : 10.8 Mbps
Width : 1 920 pixels
Height : 1 080 pixels
Display aspect ratio : 16:9
Frame rate mode : Constant
Frame rate : 23.976 fps
Color space : YUV
Chroma subsampling : 4:2:0
Bit depth : 8 bits
Scan type : Progressive
Bits/(Pixel*Frame) : 0.216
Stream size : 8.82 GiB (86%)
Title : BDRip by Ash61
Writing library : x264 core 146 r2538 121396c
Encoding settings : cabac=1 / ref=4 / deblock=1:-3:-3 / analyse=0x3:0x113 / me=umh / subme=10 / psy=1 / psy_rd=1.00:0.00 / mixed_ref=1 / me_range=32 / chroma_me=1 / trellis=2 / 8x8dct=1 / cqm=0 / deadzone=21,11 / fast_pskip=1 / chroma_qp_offset=-2 / threads=12 / lookahead_threads=3 / sliced_threads=0 / nr=0 / decimate=1 / interlaced=0 / bluray_compat=0 / constrained_intra=0 / bframes=12 / b_pyramid=2 / b_adapt=2 / b_bias=0 / direct=3 / weightb=1 / open_gop=0 / weightp=2 / keyint=250 / keyint_min=23 / scenecut=40 / intra_refresh=0 / rc_lookahead=60 / rc=crf / mbtree=1 / crf=15.0 / qcomp=0.70 / qpmin=0 / qpmax=69 / qpstep=4 / vbv_maxrate=40000 / vbv_bufsize=30000 / crf_max=0.0 / nal_hrd=none / filler=0 / frame-packing=4 / ip_ratio=1.40 / aq=1:0.70
Language : English
Default : Yes
Forced : No
Audio #1
ID : 2
Format : AC-3
Format/Info : Audio Coding 3
Mode extension : CM (complete main)
Format settings, Endianness : Big
Codec ID : A_AC3
Duration : 1h 57mn
Bit rate mode : Constant
Bit rate : 640 Kbps
Channel(s) : 6 channels
Channel positions : Front: L C R, Side: L R, LFE
Sampling rate : 48.0 KHz
Bit depth : 16 bits
Compression mode : Lossy
Stream size : 537 MiB (5%)
Title : Дубляж - BD Eur
Language : Russian
Default : Yes
Forced : No
Audio #2
ID : 3
Format : AC-3
Format/Info : Audio Coding 3
Mode extension : CM (complete main)
Format settings, Endianness : Big
Codec ID : A_AC3
Duration : 1h 57mn
Bit rate mode : Constant
Bit rate : 192 Kbps
Channel(s) : 2 channels
Channel positions : Front: L R
Sampling rate : 48.0 KHz
Bit depth : 16 bits
Compression mode : Lossy
Stream size : 161 MiB (2%)
Title : Дубляж - iTunes
Language : Ukrainian
Default : No
Forced : No
Audio #3
ID : 4
Format : AC-3
Format/Info : Audio Coding 3
Mode extension : CM (complete main)
Format settings, Endianness : Big
Codec ID : A_AC3
Duration : 1h 57mn
Bit rate mode : Constant
Bit rate : 640 Kbps
Channel(s) : 6 channels
Channel positions : Front: L C R, Side: L R, LFE
Sampling rate : 48.0 KHz
Bit depth : 16 bits
Compression mode : Lossy
Stream size : 537 MiB (5%)
Title : Original - BD 3D
Language : English
Default : No
Forced : No
Text #1
ID : 5
Format : UTF-8
Codec ID : S_TEXT/UTF8
Codec ID/Info : UTF-8 Plain Text
Title : Форсированные
Language : Russian
Default : Yes
Forced : No
Text #2
ID : 6
Format : UTF-8
Codec ID : S_TEXT/UTF8
Codec ID/Info : UTF-8 Plain Text
Title : Полные
Language : Russian
Default : No
Forced : No
Text #3
ID : 7
Format : UTF-8
Codec ID : S_TEXT/UTF8
Codec ID/Info : UTF-8 Plain Text
Title : Полные
Language : Ukrainian
Default : No
Forced : No
Text #4
ID : 8
Format : UTF-8
Codec ID : S_TEXT/UTF8
Codec ID/Info : UTF-8 Plain Text
Title : Full
Language : English
Default : No
Forced : No
Text #5
ID : 9
Format : UTF-8
Codec ID : S_TEXT/UTF8
Codec ID/Info : UTF-8 Plain Text
Title : SDH
Language : English
Default : No
Forced : No
Text #6
ID : 10
Format : UTF-8
Codec ID : S_TEXT/UTF8
Codec ID/Info : UTF-8 Plain Text
Title : SDH-Colored
Language : English
Default : No
Forced : No
Menu
00:00:00.000 : :1
00:09:13.885 : :2
00:14:22.193 : :3
00:19:52.106 : :4
00:22:56.791 : :5
00:28:34.378 : :6
00:34:05.209 : :7
00:36:59.382 : :8
00:42:50.900 : :9
00:45:01.155 : :10
00:46:59.440 : :11
00:48:44.463 : :12
00:50:12.550 : :13
00:55:53.141 : :14
01:04:47.967 : :15
01:08:58.634 : :16
01:11:38.836 : :17
01:16:16.488 : :18
01:20:30.324 : :19
01:33:30.479 : :20
01:42:27.640 : :21
01:49:40.323 : :22

Для оценки 3Д - Анимированные скрины















8.06.2016. Релиз обновлён - русская дорога заменена на лицензию, добавлены украинские дорога и субтитры.
Желающие, скачайте заново торрент-файл.


Показать сообщения:    

Текущее время: 14-Дек 19:07

Часовой пояс: UTC ± 0


Вы не можете начинать темы
Вы не можете отвечать на сообщения
Вы не можете редактировать свои сообщения
Вы не можете удалять свои сообщения
Вы не можете голосовать в опросах
Вы не можете прикреплять файлы к сообщениям
Вы не можете скачивать файлы

!ВНИМАНИЕ!
Сайт не предоставляет электронные версии произведений, а занимается лишь коллекционированием и каталогизацией ссылок, присылаемых и публикуемых на форуме нашими читателями. Если вы являетесь правообладателем какого-либо представленного материала и не желаете, чтобы ссылка на него находилась в нашем каталоге, свяжитесь с нами, и мы незамедлительно удалим ее. Файлы для обмена на трекере предоставлены пользователями сайта, и администрация не несет ответственности за их содержание. Просьба не заливать файлы, защищенные авторскими правами, а также файлы нелегального содержания!