Важное объявление!
У Нас Все раздачи мультитрекерные, при нуле пиров в релизах, можете смело вставать на закачку!
 
Автор Сообщение

HUNTER

Стаж:
4 года 8 месяцев
Сообщений:
61987

Репутация: 101

[+] [-]
Вне форума [Профиль] [ЛС]

И грянул гром / A Sound of Thunder

Слоган: «Некоторые правила нельзя нарушать»
Страна: Великобритания, США, Германия, Чехия
Студия: Franchise Pictures, Crusader Entertainment, ApolloMedia Distribution (as ApolloMedia), Baldwin Entertainment Group, Coco, Dante Entertainment, ETIC Films, Epsilon Motion Pictures, Film 111, Forge, Jericho Productions Ltd., MFF (Sound of Thunder), Matrix Film Finance, QI Quality International GmbH & Co. KG, Scenario Lane Productions, Signature Pictures.
Жанр: ужасы, фантастика, боевик, триллер, приключения
Год выпуска: 2005
Продолжительность: 01:41:17
Перевод 1: Профессиональный (дублированный)
Перевод 2: Профессиональный (двухголосый закадровый)
Cубтитры: русские, английские
Оригинальная аудиодорожка: английский
Режиссер: Питер Хайамс / Peter Hyams
В ролях: Эдвард Бёрнс, Катрин МакКормак, Бен Кингсли, Джемайма Рупер, Дэвид Ойелоуо, Армин Роде, Хайке Макач, Вильфрид Хохгольдингер, Август Цирнер, Элвин Ван Дер Куеч ...
Описание: В недалеком будущем, путешествия во времени станут удивительной, непредсказуемой реальностью. За деньги, богатые путешественники могут пробудить свои дремлющие инстинкты охотников, заказывая доисторические сафари, чтобы охотиться на настоящих живых динозавров.
Есть только три важных правила, которые нельзя нарушать: не менять ничего в прошлом; не оставлять ничего там; и самое важное — ничего не брать с собой назад. Малейшее изменение могло бы привести к глобальному изменению эволюции способами, которые даже трудно представить.
Доп. информация: Исходник A.Sound.of.Thunder.2005.BluRay.720p.DTS.x264-CHD найден в сети.--Спасибо за рус. дорожки и субтитры [url=viewtopic.php?t=4376522]Ювелир[/url]-- --A Sound of Thunder_(2005)_720p BDRip_Sample_.mkv-
-

Знаете ли вы, что... + Ошибки в фильме


-
-Тип релиза: BDRip 720p
Контейнер: MKV
Видео: x264, 1280x534, 2.40:1, 23.976 fps, 7 500 Kbps, Progressive, 0.340 Bits/(Pixel*Frame)
Аудио 1: 48 kHz, AC3 Dolby Digital, 3/2 (L,C,R,l,r) + LFE ch, ~448 kbps, Русский - DUB
Аудио 2: 48 kHz, AC3 Dolby Digital, 3/2 (L,C,R,l,r) + LFE ch, ~448 kbps, Русский - MVO
Аудио 3: 48 kHz, DTS, 3/2 (L,C,R,SL,SR)+LFE ch, 24 bits, ~1 509 Kbps, Английский
Формат субтитров: softsub (SRT)

MediaInfo

General
Unique ID : 191715653525367957329302822015736856368 (0x903B177FC2CDE2F68AB3D68D08CDBF30)
Complete name : I:\111\A Sound of Thunder_(2005)_720p BDRip_.mkv
Format : Matroska
Format version : Version 4 / Version 2
File size : 5.64 GiB
Duration : 1 h 41 min
Overall bit rate : 7 974 kb/s
Encoded date : UTC 2016-08-31 07:23:25
Writing application : mkvmerge v8.6.1 ('Flying') 64bit
Writing library : libebml v1.3.3 + libmatroska v1.4.4
Video
ID : 1
Format : AVC
Format/Info : Advanced Video Codec
Format profile : High@L4.1
Format settings, CABAC : Yes
Format settings, ReFrames : 12 frames
Codec ID : V_MPEG4/ISO/AVC
Duration : 1 h 41 min
Bit rate : 5 569 kb/s
Width : 1 280 pixels
Height : 534 pixels
Display aspect ratio : 2.40:1
Frame rate mode : Constant
Frame rate : 23.976 FPS
Color space : YUV
Chroma subsampling : 4:2:0
Bit depth : 8 bits
Scan type : Progressive
Bits/(Pixel*Frame) : 0.340
Stream size : 3.83 GiB (68%)
Title : A Sound of Thunder_(2005)_720p BDRip_[Muxed by rjhlb777]
Writing library : x264 core 138 r2358 9e941d1
Encoding settings : cabac=1 / ref=12 / deblock=1:-3:-3 / analyse=0x3:0x113 / me=umh / subme=11 / psy=1 / psy_rd=1.00:0.05 / mixed_ref=1 / me_range=32 / chroma_me=1 / trellis=2 / 8x8dct=1 / cqm=0 / deadzone=21,11 / fast_pskip=0 / chroma_qp_offset=-2 / threads=8 / lookahead_threads=1 / sliced_threads=0 / nr=0 / decimate=1 / interlaced=0 / bluray_compat=0 / constrained_intra=0 / bframes=5 / b_pyramid=2 / b_adapt=2 / b_bias=0 / direct=3 / weightb=1 / open_gop=0 / weightp=2 / keyint=250 / keyint_min=23 / scenecut=40 / intra_refresh=0 / rc=2pass / mbtree=0 / bitrate=5569 / ratetol=1.0 / qcomp=0.70 / qpmin=0 / qpmax=69 / qpstep=4 / cplxblur=20.0 / qblur=0.5 / ip_ratio=1.40 / pb_ratio=1.30 / aq=2:0.90
Language : English
Default : Yes
Forced : No
Audio #1
ID : 2
Format : AC-3
Format/Info : Audio Coding 3
Mode extension : CM (complete main)
Format settings, Endianness : Big
Codec ID : A_AC3
Duration : 1 h 41 min
Bit rate mode : Constant
Bit rate : 448 kb/s
Channel(s) : 6 channels
Channel positions : Front: L C R, Side: L R, LFE
Sampling rate : 48.0 kHz
Frame rate : 31.250 FPS (1536 spf)
Compression mode : Lossy
Stream size : 325 MiB (6%)
Title : DUB
Language : Russian
Default : Yes
Forced : No
Audio #2
ID : 3
Format : AC-3
Format/Info : Audio Coding 3
Mode extension : CM (complete main)
Format settings, Endianness : Big
Codec ID : A_AC3
Duration : 1 h 41 min
Bit rate mode : Constant
Bit rate : 448 kb/s
Channel(s) : 6 channels
Channel positions : Front: L C R, Side: L R, LFE
Sampling rate : 48.0 kHz
Frame rate : 31.250 FPS (1536 spf)
Compression mode : Lossy
Stream size : 325 MiB (6%)
Title : DVO
Language : Russian
Default : No
Forced : No
Audio #3
ID : 4
Format : DTS
Format/Info : Digital Theater Systems
Mode : 16
Format settings, Endianness : Big
Codec ID : A_DTS
Duration : 1 h 41 min
Bit rate mode : Constant
Bit rate : 1 509 kb/s
Channel(s) : 6 channels
Channel positions : Front: L C R, Side: L R, LFE
Sampling rate : 48.0 kHz
Frame rate : 93.750 FPS (512 spf)
Bit depth : 24 bits
Compression mode : Lossy
Stream size : 1.07 GiB (19%)
Title : Original
Language : English
Default : No
Forced : No
Text #1
ID : 5
Format : UTF-8
Codec ID : S_TEXT/UTF8
Codec ID/Info : UTF-8 Plain Text
Language : Russian
Default : No
Forced : No
Text #2
ID : 6
Format : UTF-8
Codec ID : S_TEXT/UTF8
Codec ID/Info : UTF-8 Plain Text
Language : English
Default : No
Forced : No
Menu
00:00:00.000 : en:Chapter 01
00:00:53.052 : en:Chapter 02
00:04:40.947 : en:Chapter 03
00:08:20.791 : en:Chapter 04
00:12:10.062 : en:Chapter 05
00:18:25.104 : en:Chapter 06
00:22:15.625 : en:Chapter 07
00:24:51.239 : en:Chapter 08
00:30:51.850 : en:Chapter 09
00:33:41.602 : en:Chapter 10
00:38:55.791 : en:Chapter 11
00:45:50.789 : en:Chapter 12
00:49:35.806 : en:Chapter 13
00:55:09.139 : en:Chapter 14
00:59:29.232 : en:Chapter 15
01:07:47.605 : en:Chapter 16
01:12:20.377 : en:Chapter 17
01:17:30.854 : en:Chapter 18
01:24:00.702 : en:Chapter 19
01:30:50.862 : en:Chapter 20
01:34:14.565 : en:Chapter 21
01:41:16.570 : en:Chapter 22

_________________
Показать сообщения:    

Текущее время: Сегодня 08:43

Часовой пояс: GMT



Вы не можете начинать темы
Вы не можете отвечать на сообщения
Вы не можете редактировать свои сообщения
Вы не можете удалять свои сообщения
Вы не можете голосовать в опросах
Вы не можете прикреплять файлы к сообщениям
Вы не можете скачивать файлы
Наши партнеры: интернет магазин Ивановского трикотажа textilla.ru