Ивановский Торрент трекер
Яндекс.Погода
 

[Цитировать]
димитри37

И Бог создал женщину / Et Dieu... crea la femme
Страна: Франция, Италия
Жанр: драма
Год выпуска: 1956
Продолжительность: 01:31:32
Перевод: Профессиональный (многоголосый закадровый)
Cубтитры: нет
Режиссер: Роже Вадим / Roger Vadim
В ролях: Брижит Бардо, Курд Юргенс, Жан-Луи Трентиньян, Джен Маркен, Жан Тиссье, Изабелль Кори, Жаклин Вентура, Жак Сирон, Пол Фаврэ, Жани Морей
Описание:Юная прелестница Жюльетт служит в газетной лавке и имеет заслуженную репутацию дурно воспитанной, распутной девчонки. Жюльетт любит море, солнце, горячий песок, музыку, еду и — мужчин. Одним своим нескромным аппетитным видом эта очаровательная «кошечка» — бывшая воспитанница сиротского приюта — провоцирует мужчин городка на фривольные мысли и безрассудные поступки. Поэтому, когда перед малышкой возникает реальная угроза возвращения в ненавистный приют, ее богатому поклоннику Эрику приходит в голову циничная мысль немедленно выдать Жюльетт замуж, чтобы затем продолжать пользоваться ее благосклонностью.

Качество видео:
Формат видео: AVI
Видео: 720x288 (2.50:1), 23.976 fps, XviD build 73 ~1820 kbps avg, 0.37 bit/pixel
Аудио: 48 kHz, AC3 Dolby Digital, 2/0 (L,R) ch, ~192 kbps

Скриншоты





Media Info

General
Complete name : G:\And.God.Created.Woman.1956.hdrip_[1.46]_[teko].avi
Format : AVI
Format/Info : Audio Video Interleave
File size : 1.46 GiB
Duration : 1h 31mn
Overall bit rate : 2 276 Kbps
Writing application : VirtualDubMod 1.5.10.3 | www.virtualdub-fr.org || (build 2550/release)
Writing library : VirtualDubMod build 2550/release
Video
ID : 0
Format : MPEG-4 Visual
Format profile : Advanced Simple@L5
Format settings, BVOP : 2
Format settings, QPel : No
Format settings, GMC : No warppoints
Format settings, Matrix : Custom
Codec ID : XVID
Codec ID/Hint : XviD
Duration : 1h 31mn
Bit rate : 2 075 Kbps
Width : 720 pixels
Height : 288 pixels
Display aspect ratio : 2.500
Frame rate : 23.976 fps
Color space : YUV
Chroma subsampling : 4:2:0
Bit depth : 8 bits
Scan type : Progressive
Compression mode : Lossy
Bits/(Pixel*Frame) : 0.417
Stream size : 1.33 GiB (91%)
Writing library : XviD 73
Audio
ID : 1
Format : AC-3
Format/Info : Audio Coding 3
Mode extension : CM (complete main)
Codec ID : 2000
Duration : 1h 31mn
Bit rate mode : Constant
Bit rate : 192 Kbps
Channel(s) : 2 channels
Channel positions : Front: L R
Sampling rate : 48.0 KHz
Bit depth : 16 bits
Compression mode : Lossy
Stream size : 126 MiB (8%)
Alignment : Split accross interleaves
Interleave, duration : 42 ms (1.00 video frame)
Interleave, preload duration : 500 ms


Показать сообщения:    

Текущее время: 16-Дек 09:25

Часовой пояс: UTC ± 0


Вы не можете начинать темы
Вы не можете отвечать на сообщения
Вы не можете редактировать свои сообщения
Вы не можете удалять свои сообщения
Вы не можете голосовать в опросах
Вы не можете прикреплять файлы к сообщениям
Вы не можете скачивать файлы

!ВНИМАНИЕ!
Сайт не предоставляет электронные версии произведений, а занимается лишь коллекционированием и каталогизацией ссылок, присылаемых и публикуемых на форуме нашими читателями. Если вы являетесь правообладателем какого-либо представленного материала и не желаете, чтобы ссылка на него находилась в нашем каталоге, свяжитесь с нами, и мы незамедлительно удалим ее. Файлы для обмена на трекере предоставлены пользователями сайта, и администрация не несет ответственности за их содержание. Просьба не заливать файлы, защищенные авторскими правами, а также файлы нелегального содержания!