Ивановский Торрент трекер
Яндекс.Погода
 

[Цитировать]
HUNTER

Исчезающая точка / Vanishing Point- -Страна: США
Жанр: роадмуви
Год выпуска: 1971
Продолжительность: 01:38:39-Перевод 1: Профессиональный (многоголосый закадровый) 1 канал
Перевод 2: Авторский (одноголосый закадровый) Г. Либергал
Перевод 3: Одноголосый закадровый
Cубтитры: русские x2, английские
Оригинальная аудиодорожка: английский-Режиссер: Ричард С. Сарафьян / Richard C. Sarafian
Сценарий: Малкольм Харт, Дж. Кабрера Инфанте, Бэрри Холл
Продюсер: Майкл Пирсон, Норман Спенсер
Оператор: Джон А. Алонсо
Художник: Дэннис Дж. Пэрриш, Глен Дэниелс, Джерри Вундерлих
Монтаж: Стефан Арнстен
В ролях: Бэрри Ньюман, Кливон Литтл, Дин Джэггер, Виктория Медлин, Пол Косло, Роберт Доннер, Тимоти Скотт, Gilda Texter, Энтони Джеймс, Артур Мэлет-Описание: Зарабатывая на жизнь перегоном машин из города в город, Ковальски получает очередное задание — доставить белый «Додж Челленджер» в Сан-Франциско из Денвера. Когда его пытаются остановить полицейские по неясной причине, Ковальски демонстративно отказывается подчиняться властям и упорно уходит от преследования, следя лишь за тем, чтобы никто из гонящихся за ним полицейских не погиб…- -Тип релиза: BDRemux 1080p
Контейнер: MKV
Видео: MPEG-4 AVC ~23929 kbps 1920x1080p / 23,976 fps / 16:9 / High Profile 4.1
Аудио 1: MVO 1 каал AC3 192 kBit/s 48 kHz 2.0 DD
Аудио 2: AVO Либергал AC3 192 kBit/s 48 kHz 2.0 DD
Аудио 3: VO AC3 448 kBit/s 48 kHz 5.1 DD
Аудио 4: English DTS-HD MA 5.1 48 kHz 2928 kbps 24-bit (DTS Core: 5.1 / 48 kHz / 1509 kbps / 24-bit)
Формат субтитров: softsub (SRT)-

MediaInfo

General
Unique ID : 188095760327285969701126900338029975982 (0x8D81ECFC2907E3C39973BD54FF9B59AE)
Complete name : I:\__R__\Vanishing Point.mkv
Format : Matroska
Format version : Version 4 / Version 2
File size : 19.1 GiB
Duration : 1h 38mn
Overall bit rate mode : Variable
Overall bit rate : 27.7 Mbps
Encoded date : UTC 2014-03-08 10:40:54
Writing application : mkvmerge v6.5.0 ('Isn't she lovely') built on Oct 20 2013 12:50:05
Writing library : libebml v1.3.0 + libmatroska v1.4.1
Video
ID : 1
Format : AVC
Format/Info : Advanced Video Codec
Format profile : High@L4.1
Format settings, CABAC : Yes
Format settings, ReFrames : 3 frames
Format settings, GOP : M=3, N=24
Codec ID : V_MPEG4/ISO/AVC
Duration : 1h 38mn
Bit rate mode : Variable
Maximum bit rate : 40.0 Mbps
Width : 1 920 pixels
Height : 1 080 pixels
Display aspect ratio : 16:9
Frame rate mode : Constant
Frame rate : 23.976 fps
Color space : YUV
Chroma subsampling : 4:2:0
Bit depth : 8 bits
Scan type : Progressive
Title : MPEG-4 AVC ~23929 kbps 1920x1080p / 23,976 fps / 16:9 / High Profile 4.1
Language : English
Default : Yes
Forced : No
Audio #1
ID : 2
Format : AC-3
Format/Info : Audio Coding 3
Mode extension : CM (complete main)
Format settings, Endianness : Big
Codec ID : A_AC3
Duration : 1h 38mn
Bit rate mode : Constant
Bit rate : 192 Kbps
Channel count : 2 channels
Channel positions : Front: L R
Sampling rate : 48.0 KHz
Bit depth : 16 bits
Compression mode : Lossy
Stream size : 136 MiB (1%)
Title : MVO 1 каал AC3 192 kBit/s 48 kHz 2.0 DD
Language : Russian
Default : No
Forced : No
Audio #2
ID : 3
Format : AC-3
Format/Info : Audio Coding 3
Mode extension : CM (complete main)
Format settings, Endianness : Big
Codec ID : A_AC3
Duration : 1h 38mn
Bit rate mode : Constant
Bit rate : 192 Kbps
Channel count : 2 channels
Channel positions : Front: L R
Sampling rate : 48.0 KHz
Bit depth : 16 bits
Compression mode : Lossy
Stream size : 136 MiB (1%)
Title : AVO Либергал AC3 192 kBit/s 48 kHz 2.0 DD
Language : Russian
Default : No
Forced : No
Audio #3
ID : 4
Format : AC-3
Format/Info : Audio Coding 3
Mode extension : CM (complete main)
Format settings, Endianness : Big
Codec ID : A_AC3
Duration : 1h 38mn
Bit rate mode : Constant
Bit rate : 448 Kbps
Channel count : 6 channels
Channel positions : Front: L C R, Side: L R, LFE
Sampling rate : 48.0 KHz
Bit depth : 16 bits
Compression mode : Lossy
Stream size : 317 MiB (2%)
Title : VO AC3 448 kBit/s 48 kHz 5.1 DD
Language : Russian
Default : No
Forced : No
Audio #4
ID : 5
Format : DTS
Format/Info : Digital Theater Systems
Format profile : MA / Core
Mode : 16
Format settings, Endianness : Big
Codec ID : A_DTS
Duration : 1h 38mn
Bit rate mode : Variable
Bit rate : Unknown / 1 509 Kbps
Channel count : 6 channels
Channel positions : Front: L C R, Side: L R, LFE
Sampling rate : 48.0 KHz
Bit depth : 24 bits
Compression mode : Lossless / Lossy
Title : English DTS-HD MA 5.1 48 kHz 2928 kbps 24-bit (DTS Core: 5.1 / 48 kHz / 1509 kbps / 24-bit)
Language : English
Default : No
Forced : No
Text #1
ID : 6
Format : UTF-8
Codec ID : S_TEXT/UTF8
Codec ID/Info : UTF-8 Plain Text
Title : v1
Language : Russian
Default : No
Forced : No
Text #2
ID : 7
Format : UTF-8
Codec ID : S_TEXT/UTF8
Codec ID/Info : UTF-8 Plain Text
Title : v2
Language : Russian
Default : No
Forced : No
Text #3
ID : 8
Format : UTF-8
Codec ID : S_TEXT/UTF8
Codec ID/Info : UTF-8 Plain Text
Language : English
Default : No
Forced : No
Показать сообщения:    

Текущее время: 25-Сен 08:56

Часовой пояс: UTC - 1


Вы не можете начинать темы
Вы не можете отвечать на сообщения
Вы не можете редактировать свои сообщения
Вы не можете удалять свои сообщения
Вы не можете голосовать в опросах
Вы не можете прикреплять файлы к сообщениям
Вы не можете скачивать файлы

!ВНИМАНИЕ!
Сайт не предоставляет электронные версии произведений, а занимается лишь коллекционированием и каталогизацией ссылок, присылаемых и публикуемых на форуме нашими читателями. Если вы являетесь правообладателем какого-либо представленного материала и не желаете, чтобы ссылка на него находилась в нашем каталоге, свяжитесь с нами, и мы незамедлительно удалим ее. Файлы для обмена на трекере предоставлены пользователями сайта, и администрация не несет ответственности за их содержание. Просьба не заливать файлы, защищенные авторскими правами, а также файлы нелегального содержания!