Важное объявление!
У Нас Все раздачи мультитрекерные, при нуле пиров в релизах, можете смело вставать на закачку!
 
Автор Сообщение

HUNTER

Стаж:
4 года 10 месяцев
Сообщений:
65485

Репутация: 101

[+] [-]
Вне форума [Профиль] [ЛС]

Исход: Цари и боги / Exodus: Gods and Kings-
Год выпуска: 2014
Страна: Великобритания, США, Испания
Жанр: боевик, драма, приключения
Продолжительность: 02:30:20
Перевод: Профессиональный (дублированный)
Русские субтитры: есть
Оригинальная аудиодорожка: английский-Режиссер: Ридли Скотт / Ridley Scott
В ролях: Кристиан Бэйл, Джоэл Эдгертон, Джон Туртурро, Аарон ПолБен Мендельсон, Мария Вальверде, Сигурни Уивер, Бен Кингсли, Хиам Аббасс, Исаак Эндрюс и др.
Описание: Ветхозаветная история о великом пророке Моисее и освобождении еврейского народа из египетского плена. Моисей появился на свет в те времена, когда фараон приказал убивать всех новорожденных мальчиков еврейского происхождения. Чтобы спасти его, мать положила малыша в корзину из тростника и отправила вниз по Нилу. Ребенка нашла дочь фараона, которая усыновила его и растила рядом с Рамсесом — будущим фараоном. Много лет спустя, став мужчиной, Моисей бежит из Египта, а затем возвращается туда по велению Господа, чтобы избавить свой народ от оков рабства.
-
  • Формат 3D Half SideBySide | Горизонтальная анаморфная стереопара-Качество: BDRip 1080p | Контейнер: MKV
    Видео: 1920x1080 (16:9), 23.976 fps, High Profile 4.1 ~14400 kbps
    Аудио 1: Russian 48 kHz, AC3, 3/2 (L,C,R,l,r) + LFE ch, 384.00 kbps | Itunes
    Аудио 2: English 48 kHz, DTS, 3/2 (L,C,R,l,r) + LFE ch, 1509.00 kbps | Original
    Субтитры: русские форсированные и полные, английские полные и полные sdh

    Инфо

    Format : Matroska
    File size : 17.4 GiB
    Duration : 2h 30mn
    Overall bit rate : 16.6 Mbps
    Movie name : Exodus: Gods and Kings 2014
    Encoded date : UTC 2015-03-14 09:17:48
    Writing application : mkvmerge v6.6.0 ('The Edge Of The In Between') built on Dec 1 2013 17:55:00
    Writing library : libebml v1.3.0 + libmatroska v1.4.1
    Video
    ID : 1
    Format : AVC
    Format/Info : Advanced Video Codec
    Format profile : High@L4.1
    Format settings, CABAC : Yes
    Format settings, ReFrames : 4 frames
    Codec ID : V_MPEG4/ISO/AVC
    Duration : 2h 30mn
    Bit rate : 14.4 Mbps
    Width : 1 920 pixels
    Height : 1 080 pixels
    Display aspect ratio : 16:9
    Frame rate : 23.976 fps
    Color space : YUV
    Chroma subsampling : 4:2:0
    Bit depth : 8 bits
    Scan type : Progressive
    Bits/(Pixel*Frame) : 0.289
    Stream size : 15.1 GiB (87%)
    Title : BDRip 1080p 3D HSBS
    Writing library : x264 core 142 r2431+42 c69a006 tMod [8-bit@all X86_64]
    Encoding settings : cabac=1 / ref=4 / deblock=1:-3:-3 / analyse=0x3:0x133 / me=umh / subme=10 / psy=1 / fade_compensate=0.00 / psy_rd=1.05:0.00 / mixed_ref=1 / me_range=24 / chroma_me=1 / trellis=2 / 8x8dct=1 / cqm=0 / deadzone=21,11 / fast_pskip=0 / chroma_qp_offset=-2 / threads=24 / lookahead_threads=4 / sliced_threads=0 / nr=0 / decimate=0 / interlaced=0 / bluray_compat=0 / constrained_intra=0 / fgo=0 / bframes=9 / b_pyramid=2 / b_adapt=2 / b_bias=0 / direct=3 / weightb=1 / open_gop=0 / weightp=2 / keyint=250 / keyint_min=23 / scenecut=40 / intra_refresh=0 / rc=crf / mbtree=0 / crf=17.5000 / qcomp=0.75 / qpmin=0:0:0 / qpmax=69:69:69 / qpstep=4 / frame-packing=3 / ip_ratio=1.20 / pb_ratio=1.10 / aq=4:0.70 / aq-sensitivity=10.00 / aq-factor=1.00:1.00:1.00 / aq2=0 / aq3=0
    Language : English
    Audio #1
    ID : 2
    Format : AC-3
    Format/Info : Audio Coding 3
    Mode extension : CM (complete main)
    Codec ID : A_AC3
    Duration : 2h 30mn
    Bit rate mode : Constant
    Bit rate : 384 Kbps
    Channel(s) : 6 channels
    Channel positions : Front: L C R, Side: L R, LFE
    Sampling rate : 48.0 KHz
    Bit depth : 16 bits
    Stream size : 413 MiB (2%)
    Title : Dub Itunes
    Language : Russian
    Audio #2
    ID : 3
    Format : DTS
    Format/Info : Digital Theater Systems
    Codec ID : A_DTS
    Duration : 2h 30mn
    Bit rate mode : Constant
    Bit rate : 1 510 Kbps
    Channel(s) : 6 channels
    Channel positions : Front: L C R, Side: L R, LFE
    Sampling rate : 48.0 KHz
    Bit depth : 24 bits
    Stream size : 1.59 GiB (9%)
    Title : Original
    Language : English
    Text #1
    ID : 4
    Format : UTF-8
    Codec ID : S_TEXT/UTF8
    Codec ID/Info : UTF-8 Plain Text
    Title : Forced
    Language : Russian
    Text #2
    ID : 5
    Format : UTF-8
    Codec ID : S_TEXT/UTF8
    Codec ID/Info : UTF-8 Plain Text
    Title : Full
    Language : Russian
    Text #3
    ID : 6
    Format : UTF-8
    Codec ID : S_TEXT/UTF8
    Codec ID/Info : UTF-8 Plain Text
    Title : Full
    Language : English
    Text #4
    ID : 7
    Format : UTF-8
    Codec ID : S_TEXT/UTF8
    Codec ID/Info : UTF-8 Plain Text
    Title : Full SDH
    Language : English
    Menu
    00:00:00.000 : en:00:00:00.000
    00:03:55.402 : en:00:03:55.402
    00:06:51.995 : en:00:06:51.995
    00:11:47.707 : en:00:11:47.707
    00:14:29.452 : en:00:14:29.452
    00:18:37.658 : en:00:18:37.658
    00:22:15.834 : en:00:22:15.834
    00:26:51.151 : en:00:26:51.151
    00:30:31.288 : en:00:30:31.288
    00:36:41.366 : en:00:36:41.366
    00:40:48.321 : en:00:40:48.321
    00:44:49.937 : en:00:44:49.937
    00:48:47.800 : en:00:48:47.800
    00:51:16.448 : en:00:51:16.448
    00:54:22.217 : en:00:54:22.217
    00:57:32.658 : en:00:57:32.658
    01:00:31.169 : en:01:00:31.169
    01:04:41.544 : en:01:04:41.544
    01:06:49.047 : en:01:06:49.047
    01:11:01.883 : en:01:11:01.883
    01:16:53.692 : en:01:16:53.692
    01:21:18.040 : en:01:21:18.040
    01:24:30.357 : en:01:24:30.357
    01:28:08.533 : en:01:28:08.533
    01:30:54.157 : en:01:30:54.157
    01:34:14.566 : en:01:34:14.566
    01:37:20.543 : en:01:37:20.543
    01:39:20.204 : en:01:39:20.204
    01:42:40.321 : en:01:42:40.321
    01:46:50.070 : en:01:46:50.070
    01:49:02.661 : en:01:49:02.661
    01:52:18.315 : en:01:52:18.315
    01:57:29.876 : en:01:57:29.876
    02:00:23.842 : en:02:00:23.842
    02:05:41.325 : en:02:05:41.325
    02:07:31.269 : en:02:07:31.269
    02:13:38.469 : en:02:13:38.469
    02:16:21.882 : en:02:16:21.882
    02:19:39.997 : en:02:19:39.997
    02:23:19.800 : en:02:23:19.800

    Скриншоты


  • _________________
    Показать сообщения:    

    Текущее время: Сегодня 19:30

    Часовой пояс: GMT



    Вы не можете начинать темы
    Вы не можете отвечать на сообщения
    Вы не можете редактировать свои сообщения
    Вы не можете удалять свои сообщения
    Вы не можете голосовать в опросах
    Вы не можете прикреплять файлы к сообщениям
    Вы не можете скачивать файлы