Ивановский Торрент трекер
Яндекс.Погода
 

[Цитировать]
HUNTER

История Эдди Дучина / The Eddy Duchin Story- Год выпуска: 1956
Страна: США
Жанр: биография, мелодрама, музыкальный
Продолжительность: 02:02:58
Перевод: Одноголосый закадровый – Михаил Темнов (mictemnoff)
Оригинальная аудиодорожка: Английская
Cубтитры: Русские (Vsasha), английские-Режиссер: Джордж Сидни / George Sidney
В ролях: Тайрон Пауэр, Ким Новак, Рекс Томпсон, Джеймс Уитмор, Виктория Шоу, Шепперд Страдвик, Фрида Инескорт, Глория Холден, Ларри Китинг, Джек Альбертсон-Описание:
История жизни Эдди Дучина, популярного пианиста и руководителя джаз-оркестра в 30-40х гг.-За финансирование озвучки спасибо: jasenka, елена 22, Магда, surzhoks, Бурый Иван, Lafajet, Ugo927, keg38А
| IMDb | Сэмпл-Качество: BDRip 720p (TayTO)
Контейнер: MKV
Видео: x264, 1280x504 (2.55:1), 23.976 fps, 9985 kbps
Аудио 1: Русский AC3 3.0, 48 kHz, 448 kbps
Аудио 2: Английский AC3 2.0, 48 kHz, 640 kbps
Формат субтитров: softsub (SRT)

Скриншоты

Source vs TayTO


-

MI

nfo
.MOVIE iNFO
GENRE.........: Biography, Drama, Music, Romance
IMDB RATING...: 7.0/10 from 986 users
LINK..........: http://www.imdb.com/title/tt0049170/
RELEASE iNFO
RELEASE NAME..: The.Eddy.Duchin.Story.1956.720p.BluRay.DD2.0.x264-TayTO
ENCODED DATE..: UTC 2014-03-10 02:28:58
RELEASE SIZE..: 9.15 GiB
RUNTIME.......: 2h 2mn
VIDEO CODEC...: x264, High@L4.1
FRAMERATE.....: 23.976 fps
BITRATE.......: 9 990 Kbps
RESOLUTION....: 1280x504
AUDIO.........: English AC3 2.0@448 Kbps
CHAPTERS......: Yes
SUBTITLES.....: English
SOURCE........: The Eddy Duchin Story 1956 1080p Blu-ray AVC DTS-HD MA 2.0
Encoder.......: BodoiCuHo@TayTO
NOTES
Black and dirty borders are cropped.
Special thanks to all TayTO members, Mendax, Nick007, k4ne, raphaex and my friends!
x264 iNFO
x264 [info]: frame I:990 Avg QP:17.64 size:123235
x264 [info]: frame P:30228 Avg QP:19.09 size: 69697
x264 [info]: frame B:145686 Avg QP:20.76 size: 49276
x264 [info]: consecutive B-frames: 0.8% 0.8% 3.0% 8.4% 11.4% 46.9% 7.6% 4.1% 4.9% 3.1% 3.6% 5.4%
encoded 176904 frames, 3.24 fps, 10200.16 kb/s, duration 15:09:46.52
General
General
Unique ID : 242024624671431062226514951061322405905 (0xB6143F4810B6F5DD8FAACE8AE6DD1811)
Complete name : The.Eddy.Duchin.Story.1956.720p.BluRay.DD2.0.x264-TayTO.mkv
Format : Matroska
Format version : Version 2
File size : 9.70 GiB
Duration : 2h 2mn
Overall bit rate : 11.3 Mbps
Movie name : The Eddy Duchin Story / История Эдди Дучина (1956) – RuTracker
Encoded date : UTC 2015-03-05 21:01:46
Writing application : mkvmerge v7.5.0 ('Glass Culture') 64bit built on Jan 4 2015 16:48:44
Writing library : libebml v1.3.1 + libmatroska v1.4.2
Attachements : cover.jpeg
Video
ID : 1
Format : AVC
Format/Info : Advanced Video Codec
Format profile : High@L4.1
Format settings, CABAC : Yes
Format settings, ReFrames : 12 frames
Codec ID : V_MPEG4/ISO/AVC
Duration : 2h 2mn
Bit rate : 9 985 Kbps
Width : 1 280 pixels
Height : 504 pixels
Display aspect ratio : 2.540
Frame rate mode : Constant
Frame rate : 23.976 fps
Color space : YUV
Chroma subsampling : 4:2:0
Bit depth : 8 bits
Scan type : Progressive
Bits/(Pixel*Frame) : 0.646
Stream size : 8.58 GiB (88%)
Title : The.Eddy.Duchin.Story.1956.720p.BluRay.DD2.0.x264-TayTO
Writing library : x264 core 142 r2389kMod 956c8d8
Encoding settings : cabac=1 / ref=12 / deblock=1:-3:-3 / analyse=0x3:0x133 / me=tesa / subme=11 / psy=1 / fade_compensate=0.00 / psy_rd=1.10:0.00 / mixed_ref=1 / me_range=24 / chroma_me=1 / trellis=2 / 8x8dct=1 / cqm=0 / deadzone=21,11 / fast_pskip=0 / chroma_qp_offset=-2 / threads=12 / lookahead_threads=3 / sliced_threads=0 / nr=0 / decimate=1 / interlaced=0 / bluray_compat=0 / constrained_intra=0 / fgo=0 / bframes=11 / b_pyramid=2 / b_adapt=2 / b_bias=0 / direct=3 / weightb=1 / open_gop=0 / weightp=2 / keyint=250 / keyint_min=23 / scenecut=40 / intra_refresh=0 / rc=crf / mbtree=0 / crf=16.9000 / qcomp=0.65 / qpmin=0 / qpmax=69 / qpstep=4 / ip_ratio=1.30 / pb_ratio=1.20 / aq=1:0.60
Language : English
Default : Yes
Forced : No
Matrix coefficients : BT.709
Color range : Limited
Audio #1
ID : 2
Format : AC-3
Format/Info : Audio Coding 3
Mode extension : CM (complete main)
Format settings, Endianness : Big
Codec ID : A_AC3
Duration : 2h 2mn
Bit rate mode : Constant
Bit rate : 448 Kbps
Channel(s) : 3 channels
Channel positions : Front: L C R
Sampling rate : 48.0 KHz
Bit depth : 16 bits
Compression mode : Lossy
Stream size : 394 MiB (4%)
Title : VO – М.Темнов
Language : Russian
Default : Yes
Forced : No
Audio #2
ID : 3
Format : AC-3
Format/Info : Audio Coding 3
Mode extension : CM (complete main)
Format settings, Endianness : Big
Codec ID : A_AC3
Duration : 2h 2mn
Bit rate mode : Constant
Bit rate : 640 Kbps
Channel(s) : 2 channels
Channel positions : Front: L R
Sampling rate : 48.0 KHz
Bit depth : 16 bits
Compression mode : Lossy
Stream size : 563 MiB (6%)
Title : Original
Language : English
Default : No
Forced : No
Text #1
ID : 4
Format : UTF-8
Codec ID : S_TEXT/UTF8
Codec ID/Info : UTF-8 Plain Text
Title : Vsasha
Language : Russian
Default : No
Forced : No
Text #2
ID : 5
Format : UTF-8
Codec ID : S_TEXT/UTF8
Codec ID/Info : UTF-8 Plain Text
Language : English
Default : No
Forced : No
Text #3
ID : 6
Format : PGS
Muxing mode : zlib
Codec ID : S_HDMV/PGS
Codec ID/Info : The same subtitle format used on BDs/HD-DVDs
Title : PSDH
Language : English
Default : No
Forced : No
Menu
00:00:00.000 : en:00:00:00.000
00:11:06.541 : en:00:11:06.541
00:20:59.425 : en:00:20:59.425
00:34:54.968 : en:00:34:54.968
00:42:03.312 : en:00:42:03.312
00:56:03.235 : en:00:56:03.235
01:05:54.367 : en:01:05:54.367
01:14:17.161 : en:01:14:17.161
01:24:45.247 : en:01:24:45.247
01:38:40.665 : en:01:38:40.665
01:51:53.582 : en:01:51:53.582
02:02:33.179 : en:02:02:33.179
Показать сообщения:    

Текущее время: 18-Окт 19:26

Часовой пояс: UTC - 1


Вы не можете начинать темы
Вы не можете отвечать на сообщения
Вы не можете редактировать свои сообщения
Вы не можете удалять свои сообщения
Вы не можете голосовать в опросах
Вы не можете прикреплять файлы к сообщениям
Вы не можете скачивать файлы

!ВНИМАНИЕ!
Сайт не предоставляет электронные версии произведений, а занимается лишь коллекционированием и каталогизацией ссылок, присылаемых и публикуемых на форуме нашими читателями. Если вы являетесь правообладателем какого-либо представленного материала и не желаете, чтобы ссылка на него находилась в нашем каталоге, свяжитесь с нами, и мы незамедлительно удалим ее. Файлы для обмена на трекере предоставлены пользователями сайта, и администрация не несет ответственности за их содержание. Просьба не заливать файлы, защищенные авторскими правами, а также файлы нелегального содержания!