Ивановский Торрент трекер
Яндекс.Погода
 

[Цитировать]
HUNTER

История игрушек: Большой побег / Toy Story 3
«The Breakout Comedy Of The Summer»- Страна: США
Жанр: фэнтези, комедия, приключения, семейный, мультфиль
Продолжительность: 01:42:33
Год выпуска: 2010
Перевод: Профессиональный (дублированный)
Русские субтитры: есть-Режиссёр: Ли Анкрич / Lee Unkrich
Роли озвучивали: Том Хэнкс, Тим Аллен, Джоан Кьюсак, Нед Битти, Дон Риклз, Майкл Китон, Уоллес Шоун, Джон Ратценбергер, Эстелль Харрис, Джон Моррис
Описание: Создатели анимационного фильма «История Игрушек» вновь переносят кинозрителей в потрясающий мир Вуди, Базза и их друзей.
Мальчик Энди вырос и игрушки больше ему не нужны. По роковому стечению обстоятельств друзья попадают в опасные для игрушек стены детского сада и теперь, чтобы выжить, им предстоит совершить побег, не потеряв по дороге никого из команды.
Вас ждет незабываемое знакомство с новыми персонажами из пластика и плюша – другом куклы Барби Кеном, склонным к драматизму ежом Колючкой и легендарным медведем Лотсо, так сладко пахнущим клубникой!-Рип от EbP
Семпл: Заливается.
Качество: BDRip 720p
Формат: MKV
Видео: 1280 x 720 (1.778), x264, 2pass, L4.1, 23.976 fps, 5464 Kbps
Аудио: 48 kHz, DD 5.1 - 640 kbps |Рус. Дубляж, BD CEE|
Аудио 2: 48 kHz, DD 5.1 - 640 kbps |Укр. Дубляж, BD CEE|
Аудио 3: 48 kHz, DD 5.1 - 640 kbps |Оригинал|
Субтитры: Rus (Форсированные, Полные), Eng (Форсированные, Полные), Fre, Por, Spa.

Подробные технические данные

Полное имя : Toy.Story.3.2010.720p.BluRay.x264-EbP.Rus.Ukr.Eng.mkvФормат : MatroskaВерсия формата : Version 4 / Version 2Размер файла : 5.30 GiBПродолжительность : 1h 43mnОбщий поток : 7 360 KbpsНазвание фильма : Toy Story 3 (2010) | Rip by EbPДата кодирования : UTC 2014-03-01 12:29:42Программа кодирования : mkvmerge v6.5.0 ('Isn't she lovely') built on Oct 20 2013 12:50:05Библиотека кодирования : libebml v1.3.0 + libmatroska v1.4.1Attachment : Yes
VideoИдентификатор : 1Формат : AVCФормат/Информация : Advanced Video CodecПрофиль формата : High@L4.1Параметр CABAC формата : YesПараметр ReFrames формата : 9 framesИдентификатор кодека : V_MPEG4/ISO/AVCПродолжительность : 1h 43mnБитрейт : 5 464 KbpsШирина : 1 280 pixelsВысота : 720 pixelsСоотношение сторон : 16:9Режим частоты кадров : ConstantЧастота кадров : 23.976 fpsЦветовое пространство : YUVСубдискретизация насыщенности : 4:2:0Битовая глубина : 8 bitsТип развёртки : ProgressiveБит/(Пиксели*Кадры) : 0.247Размер потока : 3.81 GiB (72%)Заголовок : Toy Story 3 (2010) by DjexБиблиотека кодирования : x264 core 107 r1745 4785e8eНастройки программы : cabac=1 / ref=9 / deblock=1:-3:-3 / analyse=0x3:0x113 / me=tesa / subme=10 / psy=1 / psy_rd=0.80:0.00 / mixed_ref=1 / me_range=16 / chroma_me=1 / trellis=2 / 8x8dct=1 / cqm=0 / deadzone=21,11 / fast_pskip=0 / chroma_qp_offset=-2 / threads=12 / sliced_threads=0 / nr=0 / decimate=0 / interlaced=0 / constrained_intra=0 / bframes=6 / b_pyramid=2 / b_adapt=2 / b_bias=0 / direct=3 / weightb=1 / open_gop=0 / weightp=2 / keyint=250 / keyint_min=23 / scenecut=40 / intra_refresh=0 / rc=2pass / mbtree=0 / bitrate=5464 / ratetol=1.0 / qcomp=0.70 / qpmin=10 / qpmax=51 / qpstep=4 / cplxblur=20.0 / qblur=0.5 / ip_ratio=1.40 / pb_ratio=1.30 / aq=1:0.90 / zones=53949,57813,b=1.5/67223,67772,b=1.5/69043,69427,b=1.5/72924,74476,b=1.5/77979,78291,b=1.5/80631,80839,b=1.5/81078,81948,b=1.5/84991,85195,b=1.5/85516,85985,b=1.5/87002,87991,b=1.5/89350,89670,b=1.5/103618,109264,b=1.5Язык : EnglishDefault : NoForced : No
Audio #1Идентификатор : 2Формат : AC-3Формат/Информация : Audio Coding 3Расширение режима : CM (complete main)Параметр Endianness формата : BigИдентификатор кодека : A_AC3Продолжительность : 1h 43mnВид битрейта : ConstantБитрейт : 640 KbpsКаналы : 6 channelsРасположение каналов : Front: L C R, Side: L R, LFEЧастота : 48.0 KHzБитовая глубина : 16 bitsМетод сжатия : LossyРазмер потока : 472 MiB (9%)Заголовок : DD 5.1 - 640 kbps |Дубляж, BD CEE|Язык : RussianDefault : YesForced : No
Audio #2Идентификатор : 3Формат : AC-3Формат/Информация : Audio Coding 3Расширение режима : CM (complete main)Параметр Endianness формата : BigИдентификатор кодека : A_AC3Продолжительность : 1h 43mnВид битрейта : ConstantБитрейт : 640 KbpsКаналы : 6 channelsРасположение каналов : Front: L C R, Side: L R, LFEЧастота : 48.0 KHzБитовая глубина : 16 bitsМетод сжатия : LossyРазмер потока : 472 MiB (9%)Заголовок : DD 5.1 - 640 kbps |Дубляж, BD CEE|Язык : UkrainianDefault : NoForced : No
Audio #3Идентификатор : 4Формат : AC-3Формат/Информация : Audio Coding 3Расширение режима : CM (complete main)Параметр Endianness формата : BigИдентификатор кодека : A_AC3Продолжительность : 1h 43mnВид битрейта : ConstantБитрейт : 640 KbpsКаналы : 6 channelsРасположение каналов : Front: L C R, Side: L R, LFEЧастота : 48.0 KHzБитовая глубина : 16 bitsМетод сжатия : LossyРазмер потока : 472 MiB (9%)Заголовок : DD 5.1 - 640 kbps |Оригинал|Язык : EnglishDefault : NoForced : No
Text #1Идентификатор : 5Формат : UTF-8Идентификатор кодека : S_TEXT/UTF8Идентификатор кодека/Информация : UTF-8 Plain TextЗаголовок : ФорсированныеЯзык : RussianDefault : YesForced : No
Text #2Идентификатор : 6Формат : UTF-8Идентификатор кодека : S_TEXT/UTF8Идентификатор кодека/Информация : UTF-8 Plain TextЗаголовок : ПолныеЯзык : RussianDefault : NoForced : No
Text #3Идентификатор : 7Формат : ASSИдентификатор кодека : S_TEXT/ASSИдентификатор кодека/Информация : Advanced Sub Station AlphaМетод сжатия : LosslessЗаголовок : ФорсированныеЯзык : EnglishDefault : NoForced : No
Text #4Идентификатор : 8Формат : ASSИдентификатор кодека : S_TEXT/ASSИдентификатор кодека/Информация : Advanced Sub Station AlphaМетод сжатия : LosslessЗаголовок : ПолныеЯзык : EnglishDefault : NoForced : No
Text #5Идентификатор : 9Формат : ASSИдентификатор кодека : S_TEXT/ASSИдентификатор кодека/Информация : Advanced Sub Station AlphaМетод сжатия : LosslessЯзык : FrenchDefault : NoForced : No
Text #6Идентификатор : 10Формат : ASSИдентификатор кодека : S_TEXT/ASSИдентификатор кодека/Информация : Advanced Sub Station AlphaМетод сжатия : LosslessЯзык : PortugueseDefault : NoForced : No
Text #7Идентификатор : 11Формат : ASSИдентификатор кодека : S_TEXT/ASSИдентификатор кодека/Информация : Advanced Sub Station AlphaМетод сжатия : LosslessЯзык : SpanishDefault : NoForced : No
Menu00:00:00.000 : :1. Western Adventure00:04:53.543 : :2. Playtime00:06:20.255 : :3. Grown Up00:11:37.405 : :4. College Packing00:15:17.166 : :5. Thrown Away00:18:34.196 : :6. Going to Daycare00:19:23.871 : :7. Sunnyside Welcome00:26:17.117 : :8. What About Andy?00:28:59.404 : :9. Woody Leaves00:31:47.822 : :10. Rough Play00:33:22.333 : :11. Bonnie00:35:50.064 : :12. We're Trapped!00:37:30.123 : :13. Gambling Den00:40:11.325 : :14. Where's Home?00:41:12.637 : :15. Lotso's Offer00:43:37.490 : :16. I See Andy00:44:49.270 : :17. Locked Up00:48:19.521 : :18. Lotso's Story00:52:28.061 : :19. Daybreak00:53:51.895 : :20. Woody Returns00:57:11.970 : :21. Reunited00:58:20.705 : :22. Prison Break01:01:09.999 : :23. Ken's Closet01:02:06.639 : :24. Prison Riot01:02:57.023 : :25. Mr. Tortilla Head01:06:35.032 : :26. Spanish Buzz01:11:21.735 : :27. Caught01:15:57.261 : :28. Garbage Truck01:17:35.817 : :29. The Dump01:19:43.195 : :30. End of the Line01:23:01.935 : :31. Safe and Sound01:24:59.594 : :32. Back Home01:28:15.582 : :33. Goodbye, Andy01:34:18.277 : :34. End Credits

Скриншоты

Source vs EbP







Показать сообщения:    

Текущее время: 16-Дек 16:30

Часовой пояс: UTC ± 0


Вы не можете начинать темы
Вы не можете отвечать на сообщения
Вы не можете редактировать свои сообщения
Вы не можете удалять свои сообщения
Вы не можете голосовать в опросах
Вы не можете прикреплять файлы к сообщениям
Вы не можете скачивать файлы

!ВНИМАНИЕ!
Сайт не предоставляет электронные версии произведений, а занимается лишь коллекционированием и каталогизацией ссылок, присылаемых и публикуемых на форуме нашими читателями. Если вы являетесь правообладателем какого-либо представленного материала и не желаете, чтобы ссылка на него находилась в нашем каталоге, свяжитесь с нами, и мы незамедлительно удалим ее. Файлы для обмена на трекере предоставлены пользователями сайта, и администрация не несет ответственности за их содержание. Просьба не заливать файлы, защищенные авторскими правами, а также файлы нелегального содержания!