Важное объявление!
У Нас Все раздачи мультитрекерные, при нуле пиров в релизах, можете смело вставать на закачку!
Статистика раздачи
Размер:     |    Зарегистрирован:     |    Скачан:     |   
Нет
 
     
 
 
Автор Сообщение

HUNTER

Стаж:
5 лет
Сообщений:
68414

Репутация: 101

[+] [-]
Вне форума [Профиль] [ЛС]

История британской науки / Science Britannica
Год выпуска: 2013
Страна: Великобритания
Жанр: Документальный
Продолжительность: 00:58:41
Перевод: Субтитры
Русские субтитры: есть
Формат субтитров: softsub (SRT)
Оригинальная аудиодорожка: английский
Режиссер: Гидеон Брэдшоу / Gideon Bradshaw
Телеканал: BBC
Описание: Этот сериал повествует о том, как 3.7 миллиарда лет назад некоторые фундаментальные законы породили самую сложную, разнообразную и уникальную силу во вселенной - жизнь. Свет, гравитация, время, материя и энергия послужили строительными кирпичиками всего сущего, от мельчайшего микроорганизма на Земле до самой большой галактики. В настоящее время, как предполагают, на Земле существует целых 100 миллионов различных биологических видов. "Чудеса жизни" рассказывают историю удивительного разнообразия и приспособляемости жизни в связи с закономерностями, которые ею управляют. От движения хромосом при делении клетки до электрической искры, вызывающей сокращение мускулов, этот сериал раскрывает секреты жизни в самых неожиданных местах и самых ошеломительных подробностях. Вы будете поражены изобретательностью природы и совершите грандиозное путешествие от истоков жизни к нашему собственному существованию.
Фильм состоит из трех частей. На данный момент представлена первая часть.

1. Frankenstein's Monsters // Монстры Франкенштейна

2. Method and Madness // Метод и безумие
3. Clear Blue Skies // Чистое голубое небо

Перевод: megaman512

Сэмпл: скачать

Качество: PDTVRip
Формат: AVI
Видео: Xvid, 720x404, 16:9, 1497kbps, 25fps
Аудио: Dolby AC3, 128kbps, 48000Hz, stereo

Пример перевода

1
00:00:15,240 --> 00:00:17,080
Мы находимся в Олд-Бэйли.
2
00:00:18,200 --> 00:00:21,720
Ныне здесь расположен центральный уголовный суд,
3
00:00:21,720 --> 00:00:27,000
однако до середины 19-го века на этом
месте находилась Ньюгетская тюрьма,
4
00:00:27,000 --> 00:00:29,680
в которой содержали самых отъявленных
преступников со всей Британии.
5
00:00:35,320 --> 00:00:38,120
Утром 18-го января 1803 года
6
00:00:38,120 --> 00:00:41,840
Джорджа Фостера вывели из камеры Ньюгетской тюрьмы
7
00:00:41,840 --> 00:00:43,640
и провели вот по этому корридору.
8
00:00:46,520 --> 00:00:50,520
Эти проемы постепенно сужаются для того,
9
00:00:50,520 --> 00:00:54,480
чтобы вызвать панику у проходящих через них заключенных,
10
00:00:54,480 --> 00:00:59,880
ведь это была последняя прогулка в их жизни -
11
00:00:59,880 --> 00:01:02,560
она вела на эшафот.
12
00:01:08,120 --> 00:01:11,600
На повешение Джорджа Фостера пришло
13
00:01:11,600 --> 00:01:13,800
поглазеть множество зевак.
14
00:01:21,560 --> 00:01:23,840
По свидетельству одного
15
00:01:23,840 --> 00:01:29,320
из очевидцев, друзья Фостера, собравшиеся под виселицей,
16
00:01:29,320 --> 00:01:33,120
резко дернули несчастного за ноги,
17
00:01:33,120 --> 00:01:35,680
что принесло скорый конец его страданиям.
18
00:01:35,680 --> 00:01:39,960
В самом акте повешения не было ничего необычного:
19
00:01:39,960 --> 00:01:43,440
лондонцы 19-го века привыкли к публичным казням,
20
00:01:43,440 --> 00:01:48,080
а самое интересное началось после смерти Фостера:
21
00:01:48,080 --> 00:01:52,640
с виселицы его тело доставили прямиком на операционный стол.

Скриншоты

MediaInfo

GeneralComplete name : C:\Users\Michael\Desktop\SB\BBC.Science.Britannica.russub.by.megaman512\BBC.Science.Britannica.1of3.Frankensteins.Monsters.PDTV.XviD.AC3.MVGroup.org.aviFormat : AVIFormat/Info : Audio Video InterleaveFile size : 687 MiBDuration : 58mn 41sOverall bit rate : 1 636 KbpsWriting application : Lavf51.12.1
VideoID : 0Format : xvidCodec ID : xvidDuration : 58mn 41sBit rate : 1 497 KbpsWidth : 720 pixelsHeight : 404 pixelsDisplay aspect ratio : 16:9Frame rate : 25.000 fpsBits/(Pixel*Frame) : 0.206Stream size : 629 MiB (92%)
AudioID : 1Format : AC-3Format/Info : Audio Coding 3Mode extension : CM (complete main)Format settings, Endianness : BigCodec ID : 2000Duration : 58mn 41sBit rate mode : ConstantBit rate : 128 KbpsChannel(s) : 2 channelsChannel positions : Front: L RSampling rate : 48.0 KHzBit depth : 16 bitsCompression mode : LossyStream size : 53.7 MiB (8%)Alignment : Aligned on interleavesInterleave, duration : 32 ms (0.80 video frame)Interleave, preload duration : 32 ms

Внимание! Раздача ведётся путём добавления новых серий!

Внимание! Раздача ведётся путём добавления новых серий; при каждом добавлении создаётся новый торрент. Чтобы начать докачку новой серии, пользователям необходимо сделать следующее: (1) остановить скачивание, (2) удалить старый торрент у себя из клиента (старые серии удалять не надо), (3) скачать новый торрент и запустить его у себя в клиенте вместо старого, при этом указать клиенту путь в старую папку куда и должно происходить скачивание новых серий.
Ваш клиент при этом должен произвести хеширование (проверку) старой папки (если не производит сам - помогите ему сделать это), и будет докачивать только те серии которых у вас ещё нет. Старые серии при этом не удаляются, а продолжают раздаваться!
Eсли вы уже удалили старые серии, то предотвратить повторную закачку старых серий можно, отжав галочку в соответствующих местах при запуске нового торрента.

_________________
Показать сообщения:    

Текущее время: Сегодня 17:40

Часовой пояс: GMT



Вы не можете начинать темы
Вы не можете отвечать на сообщения
Вы не можете редактировать свои сообщения
Вы не можете удалять свои сообщения
Вы не можете голосовать в опросах
Вы не можете прикреплять файлы к сообщениям
Вы не можете скачивать файлы