Важное объявление!
У Нас Все раздачи мультитрекерные, при нуле пиров в релизах, можете смело вставать на закачку!
 
Автор Сообщение

HUNTER

Стаж:
4 года 7 месяцев
Сообщений:
61573

Репутация: 101

[+] [-]
Вне форума [Профиль] [ЛС]

История Бадди Холли / The Buddy Holly Story
Страна: США
Жанр: драма, биография, музыка
Год выпуска: 1978
Продолжительность: 01:48:53
Перевод: Профессиональный (двухголосый закадровый) Cinema Prestige
Cубтитры: русские
Оригинальная аудиодорожка: английский
Режиссер: Стив Рэш / Steve Rash
В ролях: Гэри Бьюзи, Дон Страуд, Чарльз Мартин Смит, Конрад Дженис, Уильям Джордан, Мария Ричвайн, Эми Джонстон, Дик О’Нил, Фрэд Травалена, Нева Паттерсон
Описание: 1956 год. В провинциальном Лаббоке тинейджеры неистовствуют на концертах Бадди Холли и его группы «The Crickets». И хотя папа звезды районного масштаба считает, что сыну лучше бы заняться чем-нибудь серьезным вроде продажи кирпича, а в местной церкви «вульгарные ритмы джунглей» предают анафеме, новую музыку уже не задушишь, не убьешь. Тем более что случайно попавшая на радио запись одной из песен мгновенно взлетает на вершины хит-парадов…
Сэмпл: http://multi-up.com/989525
Тип релиза: BDRip 720p
Контейнер: MKV
Видео: MPEG4 Video (H264) 1270x720 25fps 8 211 Kbps
Аудио: Russian AC-3 2 ch 48.0 KHz 192 Kbps
Аудио 2: English AC-3 2 ch 48.0 KHz 640 Kbps
Формат субтитров: softsub (SRT)

MediaInfo

General
Unique ID : 240407263863431151860286206629431734931 (0xB4DCC13CB02E55B3A24CAB984AF3F293)
Complete name : C:\Users\Вика\Desktop\The.Buddy.Holly.Story.1978.720p.BDRip.x264.mkv
Format : Matroska
Format version : Version 4 / Version 2
File size : 6.88 GiB
Duration : 1h 48mn
Overall bit rate : 9 044 Kbps
Encoded date : UTC 2014-07-30 08:27:13
Writing application : mkvmerge v6.9.1 ('Blue Panther') 64bit built on Apr 18 2014 18:23:38
Writing library : libebml v1.3.0 + libmatroska v1.4.1
Video
ID : 1
Format : AVC
Format/Info : Advanced Video Codec
Format profile : High@L4.1
Format settings, CABAC : Yes
Format settings, ReFrames : 9 frames
Codec ID : V_MPEG4/ISO/AVC
Duration : 1h 48mn
Bit rate : 8 211 Kbps
Width : 1 270 pixels
Height : 720 pixels
Display aspect ratio : 16:9
Frame rate mode : Constant
Frame rate : 25.000 fps
Color space : YUV
Chroma subsampling : 4:2:0
Bit depth : 8 bits
Scan type : Progressive
Bits/(Pixel*Frame) : 0.359
Stream size : 6.11 GiB (89%)
Writing library : x264 core 125 r2200 999b753
Encoding settings : cabac=1 / ref=9 / deblock=1:-3:-3 / analyse=0x3:0x133 / me=umh / subme=11 / psy=1 / psy_rd=1.05:0.00 / mixed_ref=1 / me_range=64 / chroma_me=1 / trellis=2 / 8x8dct=1 / cqm=0 / deadzone=21,11 / fast_pskip=0 / chroma_qp_offset=-2 / threads=12 / lookahead_threads=2 / sliced_threads=0 / nr=0 / decimate=1 / interlaced=0 / bluray_compat=0 / constrained_intra=0 / bframes=9 / b_pyramid=2 / b_adapt=2 / b_bias=0 / direct=3 / weightb=1 / open_gop=0 / weightp=2 / keyint=250 / keyint_min=24 / scenecut=40 / intra_refresh=0 / rc_lookahead=40 / rc=2pass / mbtree=0 / bitrate=8211 / ratetol=1.0 / qcomp=0.60 / qpmin=0 / qpmax=69 / qpstep=4 / cplxblur=20.0 / qblur=0.5 / vbv_maxrate=50000 / vbv_bufsize=62500 / nal_hrd=none / ip_ratio=1.10 / pb_ratio=1.10 / aq=1:0.80
Language : English
Default : Yes
Forced : No
Audio #1
ID : 2
Format : AC-3
Format/Info : Audio Coding 3
Mode extension : CM (complete main)
Format settings, Endianness : Big
Codec ID : A_AC3
Duration : 1h 48mn
Bit rate mode : Constant
Bit rate : 192 Kbps
Channel count : 2 channels
Channel positions : Front: L R
Sampling rate : 48.0 KHz
Bit depth : 16 bits
Compression mode : Lossy
Stream size : 150 MiB (2%)
Title : DVO
Language : Russian
Default : Yes
Forced : No
Audio #2
ID : 3
Format : AC-3
Format/Info : Audio Coding 3
Mode extension : CM (complete main)
Format settings, Endianness : Big
Codec ID : A_AC3
Duration : 1h 48mn
Bit rate mode : Constant
Bit rate : 640 Kbps
Channel count : 2 channels
Channel positions : Front: L R
Sampling rate : 48.0 KHz
Bit depth : 16 bits
Compression mode : Lossy
Stream size : 499 MiB (7%)
Language : English
Default : No
Forced : No
Text
ID : 4
Format : UTF-8
Codec ID : S_TEXT/UTF8
Codec ID/Info : UTF-8 Plain Text
Language : Russian
Default : Yes
Forced : No
Menu
00:00:00.000 : :00:00:00.000
00:03:42.080 : :00:03:42.080
00:08:35.120 : :00:08:35.120
00:15:09.559 : :00:15:09.559
00:22:28.119 : :00:22:28.119
00:28:45.400 : :00:28:45.400
00:34:30.840 : :00:34:30.840
00:46:02.199 : :00:46:02.199
00:50:23.280 : :00:50:23.280
00:53:39.360 : :00:53:39.360
01:06:33.320 : :01:06:33.320
01:20:06.840 : :01:20:06.840
01:28:25.760 : :01:28:25.760
01:39:53.880 : :01:39:53.880

Скриншоты


_________________
Показать сообщения:    

Текущее время: Сегодня 04:48

Часовой пояс: GMT



Вы не можете начинать темы
Вы не можете отвечать на сообщения
Вы не можете редактировать свои сообщения
Вы не можете удалять свои сообщения
Вы не можете голосовать в опросах
Вы не можете прикреплять файлы к сообщениям
Вы не можете скачивать файлы
Наши партнеры: интернет магазин Ивановского трикотажа textilla.ru