Ивановский Торрент трекер
Яндекс.Погода
 

[Цитировать]
димитри37

История Аси Клячиной, которая любила, да не вышла замуж / Асино счастье
Жанр: драма, мелодрама
Год выпуска: 1966-1987
Продолжительность: 01:33:34
Режиссёр: Андрей Кончаловский
В ролях:
Ия Саввина
Александр Сурин
Геннадий Егорычев
Любовь Соколова
Иван Петров
Михаил Кислов
Борис Парфенов
Сергей Парфенов
Наталья Серова
Федор Родионычев
Описание:
Фильм о любви кроткой, нежной и гордой Аси–хромоножки к непутевому шоферу Степану, снятый в 1967 году, в советское время не удостоился чести быть показанным «первым экраном» под оригинальным авторским названием. Широкое признание к этой талантливой картине пришло лишь через два десятилетия.
Доп. информация:

Качество видео: DVDRip, исходник - DVD5
Формат видео: AVI
Видео: 704x528 (1.33:1), 25 fps, XviD build 65 ~1773 kbps avg, 0.19 bit/pixel
Аудио: 48 kHz, AC3 Dolby Digital, 3/2 (L,C,R,l,r) + LFE ch, ~448 kbps
Семпл

Сравнения

Сравнение с DVDRip-ом от nanja - здесь - зачем-то контраст поднят.

MediaInfo

Общее
Полное имя : C:\Films\История Аси Клячиной\История Аси Клячиной_1.45\История Аси Клячиной_1.45.avi
Формат : AVI
Формат/Информация : Audio Video Interleave
Размер файла : 1,46 Гбайт
Продолжительность : 1 ч. 33 м.
Общий поток : 2232 Кбит/сек
Программа кодирования : VirtualDubMod 1.5.10.3 (build 2550/release)
Библиотека кодирования : VirtualDubMod build 2550/release
Видео
Идентификатор : 0
Формат : MPEG-4 Visual
Профиль формата : Advanced Simple@L5
Параметр BVOP формата : 1
Параметр QPel формата : Нет
Параметр GMC формата : Без точки перехода
Параметр матрицы формата : Выборочная
Идентификатор кодека : XVID
Идентификатор кодека/Подсказка : XviD
Продолжительность : 1 ч. 33 м.
Битрейт : 1774 Кбит/сек
Ширина : 704 пикселя
Высота : 528 пикселей
Соотношение сторон : 4:3
Частота кадров : 25,000 кадров/сек
Цветовое пространство : YUV
Субдискретизация насыщенности : 4:2:0
Битовая глубина : 8 бит
Тип развёртки : Прогрессивная
Метод сжатия : С потерями
Бит/(Пиксели*Кадры) : 0.191
Размер потока : 1,16 Гбайт (79%)
Библиотека кодирования : XviD 65
Аудио
Идентификатор : 1
Формат : AC-3
Формат/Информация : Audio Coding 3
Расширение режима : CM (complete main)
Параметр Endianness формата : Big
Идентификатор кодека : 2000
Продолжительность : 1 ч. 33 м.
Вид битрейта : Постоянный
Битрейт : 448 Кбит/сек
Каналы : 6 каналов
Расположение каналов : Front: L C R, Side: L R, LFE
Частота : 48,0 КГц
Битовая глубина : 16 бит
Метод сжатия : С потерями
Размер потока : 300 Мбайт (20%)
Выравнивание : Разделение по промежуткам
Продолжительность промежутка : 40 мс. (1,00 видеокадр)
Время предзагрузки промежутка : 500 мс.

Скриншоты

Показать сообщения:    

Текущее время: 20-Сен 08:11

Часовой пояс: UTC - 1


Вы не можете начинать темы
Вы не можете отвечать на сообщения
Вы не можете редактировать свои сообщения
Вы не можете удалять свои сообщения
Вы не можете голосовать в опросах
Вы не можете прикреплять файлы к сообщениям
Вы не можете скачивать файлы

!ВНИМАНИЕ!
Сайт не предоставляет электронные версии произведений, а занимается лишь коллекционированием и каталогизацией ссылок, присылаемых и публикуемых на форуме нашими читателями. Если вы являетесь правообладателем какого-либо представленного материала и не желаете, чтобы ссылка на него находилась в нашем каталоге, свяжитесь с нами, и мы незамедлительно удалим ее. Файлы для обмена на трекере предоставлены пользователями сайта, и администрация не несет ответственности за их содержание. Просьба не заливать файлы, защищенные авторскими правами, а также файлы нелегального содержания!