Важное объявление!
У Нас Все раздачи мультитрекерные, при нуле пиров в релизах, можете смело вставать на закачку!
 
Автор Сообщение

HUNTER

Стаж:
4 года 9 месяцев
Сообщений:
65047

Репутация: 101

[+] [-]
Вне форума [Профиль] [ЛС]

Истории об обсерватории XMM-Newton / Stories from XMM
Год выпуска: 2005
Страна: Европа
Жанр: научно-популярный
Продолжительность: 00:24:30
Перевод: одноголосый закадровый
перевод - Annie Phoenix, озвучивание - Slavnus Spacedust, обработка звука - Anna Spacedust
Русские субтитры: есть
Оригинальная аудиодорожка: есть, английский
Семпл: http://sendfile.su/1134776
Режиссёр: не указан
Описание: Фильм про изучение Вселенной с помощью рентгеновского многозеркального телескопа имени Ньютона.
XMM-Newton - космический рентгеновский телескоп, созданный Европейским Космическим Агентством совместно с NASA.
Качество: DVDRip
Формат: AVI
Видео: XviD 624x464 4:3 25.00fps 1391 kbps
Аудио 1 (русский): AC-3 48000 Hz stereo 192 kbps constant
Аудио 2 (английский): MP3 44100 Hz stereo 112 kbps constant

MediaInfo

GeneralComplete name : M:\05. SpaceDust\01.Space\03.Europe\2005 - Истории об обсерватории XMM-Newton\Stories from XMM.aviFormat : AVIFormat/Info : Audio Video InterleaveFile size : 292 MiBDuration : 23mn 53sOverall bit rate : 1 709 KbpsWriting application : VirtualDubMod 1.5.10.2 (build 2540/release)Writing library : VirtualDubMod build 2540/release
VideoID : 0Format : MPEG-4 VisualFormat profile : Advanced Simple@L5Format settings, BVOP : 2Format settings, QPel : NoFormat settings, GMC : No warppointsFormat settings, Matrix : Default (H.263)Muxing mode : Packed bitstreamCodec ID : XVIDCodec ID/Hint : XviDDuration : 23mn 53sBit rate : 1 391 KbpsWidth : 624 pixelsHeight : 464 pixelsDisplay aspect ratio : 4:3Frame rate : 25.000 fpsColor space : YUVChroma subsampling : 4:2:0Bit depth : 8 bitsScan type : ProgressiveCompression mode : LossyBits/(Pixel*Frame) : 0.192Stream size : 238 MiB (81%)Writing library : XviD 1.2.0.dev47 (UTC 2006-11-01)
Audio #1ID : 1Format : AC-3Format/Info : Audio Coding 3Mode extension : CM (complete main)Format settings, Endianness : BigCodec ID : 2000Duration : 23mn 53sBit rate mode : ConstantBit rate : 192 KbpsChannel(s) : 2 channelsChannel positions : Front: L RSampling rate : 48.0 KHzBit depth : 16 bitsCompression mode : LossyStream size : 32.8 MiB (11%)Alignment : Split accross interleavesInterleave, duration : 40 ms (1.00 video frame)Interleave, preload duration : 500 ms
Audio #2ID : 2Format : MPEG AudioFormat version : Version 1Format profile : Layer 3Mode : Joint stereoMode extension : MS StereoCodec ID : 55Codec ID/Hint : MP3Duration : 23mn 53sBit rate mode : ConstantBit rate : 112 KbpsChannel(s) : 2 channelsSampling rate : 44.1 KHzCompression mode : LossyDelay relative to video : 25msStream size : 19.1 MiB (7%)Alignment : Split accross interleavesInterleave, duration : 40 ms (1.00 video frame)Interleave, preload duration : 500 ms

Скриншоты


_________________
Показать сообщения:    

Текущее время: Сегодня 19:47

Часовой пояс: GMT



Вы не можете начинать темы
Вы не можете отвечать на сообщения
Вы не можете редактировать свои сообщения
Вы не можете удалять свои сообщения
Вы не можете голосовать в опросах
Вы не можете прикреплять файлы к сообщениям
Вы не можете скачивать файлы