Истинно верующий / Верящий в правду / True Believer (Джозеф Рубин / Joseph Ruben) [1989, США, драма, криминал, WEB-DL 720p] DVO (НТВ+) + Sub Eng + Original Eng :: Ивановский Торрент трекер
Важное объявление!
У Нас Все раздачи мультитрекерные, при нуле пиров в релизах, можете смело вставать на закачку!
Статистика раздачи
Размер:     |    Зарегистрирован:     |    Скачан:     |   
Нет
 
     
 
 
Автор Сообщение

HUNTER

Стаж:
4 года 11 месяцев
Сообщений:
66052

Репутация: 101

[+] [-]
Вне форума [Профиль] [ЛС]

06.08.16 торрент перезалит, звук синхронизирован заново.-Истинно верующий / Верящий в правду / True Believer
Страна: США
Жанр: драма, криминал
Год выпуска: 1989
Продолжительность: 01:48:07
Перевод: Профессиональный (двухголосый закадровый) НТВ+
Cубтитры: английские
Оригинальная аудиодорожка: английский
Режиссер: Джозеф Рубин / Joseph Ruben
В ролях: Джеймс Вудс, Роберт Дауни мл., Маргарет Колин, Юдзи Окумото, Кертвуд Смит, Том Бауэр, Мигель Фернандес, Чарльз Хэллахан, Салли Диаз, Мисан Ким...
Описание: Молодой юрист, только закончивший учебу, устраивается ассистентом к преуспевающему адвокату, работой которого он восхищался многие годы. Выясняется, что этот «профессионал» растерял былой энтузиазм, и сейчас проводит время, вытаскивая торговцев наркотиками из тюрьмы. Однако появляется интересное дельце. К ним обращается мама паренька, осужденного на пожизненное заключение за убийство, которого он не совершал.
Доп. информация: Звук с раздачи myshka-jinny. Синхронизация звука - Dreven.
Сэмпл: http://sendfile.su/1255523
Тип релиза: WEB-DL 720p
Контейнер: MKV
Видео: 1280x720 (16:9), 23.976 fps, AVC, ~3973 Kbps, 0.180 bits/pixel
Аудио 1: Russian, 48.0 KHz, AC3, 2 ch, 192 Kbps - НТВ+
Аудио 2: English, 48.0 KHz, AC3, 2 ch, 192 Kbps

MediaInfo

General
Unique ID : 201787474893753478613927774474753508551 (0x97CEDAA1B60FB20AB16B7411F98F84C7)
Complete name : D:\True Believer. WEB-DL 720p.mkv
Format : Matroska
Format version : Version 4 / Version 2
File size : 3.36 GiB
Duration : 1h 48mn
Overall bit rate : 4 446 Kbps
Encoded date : UTC 2016-08-03 05:07:51
Writing application : mkvmerge v9.3.1 ('Mask Machine') 64bit
Writing library : libebml v1.3.4 + libmatroska v1.4.5
Video
ID : 1
Format : AVC
Format/Info : Advanced Video Codec
Format profile : High@L3.1
Format settings, CABAC : No
Format settings, ReFrames : 2 frames
Codec ID : V_MPEG4/ISO/AVC
Duration : 1h 48mn
Bit rate : 4 060 Kbps
Width : 1 280 pixels
Height : 720 pixels
Display aspect ratio : 16:9
Frame rate mode : Constant
Frame rate : 23.976 (23976/1000) fps
Color space : YUV
Chroma subsampling : 4:2:0
Bit depth : 8 bits
Scan type : Progressive
Bits/(Pixel*Frame) : 0.184
Stream size : 3.07 GiB (91%)
Language : English
Default : Yes
Forced : No
Color range : Limited
Color primaries : BT.709
Transfer characteristics : BT.709
Matrix coefficients : BT.709
Audio #1
ID : 2
Format : AC-3
Format/Info : Audio Coding 3
Mode extension : CM (complete main)
Format settings, Endianness : Big
Codec ID : A_AC3
Duration : 1h 48mn
Bit rate mode : Constant
Bit rate : 192 Kbps
Channel(s) : 2 channels
Channel positions : Front: L R
Sampling rate : 48.0 KHz
Frame rate : 31.250 fps (1536 spf)
Compression mode : Lossy
Stream size : 148 MiB (4%)
Title : НТВ+
Language : Russian
Default : Yes
Forced : No
Audio #2
ID : 3
Format : AC-3
Format/Info : Audio Coding 3
Mode extension : CM (complete main)
Format settings, Endianness : Big
Codec ID : A_AC3
Duration : 1h 48mn
Bit rate mode : Constant
Bit rate : 192 Kbps
Channel(s) : 2 channels
Channel positions : Front: L R
Sampling rate : 48.0 KHz
Frame rate : 31.250 fps (1536 spf)
Compression mode : Lossy
Stream size : 148 MiB (4%)
Language : English
Default : No
Forced : No
Text
ID : 4
Format : UTF-8
Codec ID : S_TEXT/UTF8
Codec ID/Info : UTF-8 Plain Text
Duration : 1h 42mn
Bit rate : 70 bps
Count of elements : 1297
Stream size : 53.0 KiB (0%)
Language : English
Default : No
Forced : No
Menu
00:00:00.000 : en:Start
00:07:14.000 : en:Eddie Dodd
00:14:00.000 : en:Mrs. Kim
00:16:50.000 : en:"Everybody's Guilty."
00:21:06.000 : en:Shu Kai Kim
00:24:13.000 : en:Reviewing The Case
00:25:56.000 : en:Kitty Greer, Pi
00:27:31.000 : en:Cecil Skell
00:30:40.000 : en:Nothing But The Truth
00:34:31.000 : en:Robert Reynard, Da
00:38:35.000 : en:A Warning
00:41:29.000 : en:Aryan Army Visit
00:43:56.000 : en:"What Happened In Chinatown?"
00:47:28.000 : en:No Deal
00:52:15.000 : en:Opening Statements
00:54:21.000 : en:Detective Montell
00:55:34.000 : en:Detective Sklaroff
00:57:32.000 : en:Vincent Dennehy
01:00:38.000 : en:Art's Supplies
01:05:00.000 : en:Dead End
01:10:07.000 : en:Laura Gayley
01:12:49.000 : en:Richard Ortega
01:17:23.000 : en:True Believer
01:21:33.000 : en:"I Knew Jimmy Chin."
01:24:06.000 : en:Dismissed
01:27:16.000 : en:Dennehy Comes Clean
01:32:57.000 : en:Justice?
01:38:02.000 : en:Reynard Testifies

Скриншоты


_________________
Показать сообщения:    

Текущее время: Сегодня 21:04

Часовой пояс: GMT



Вы не можете начинать темы
Вы не можете отвечать на сообщения
Вы не можете редактировать свои сообщения
Вы не можете удалять свои сообщения
Вы не можете голосовать в опросах
Вы не можете прикреплять файлы к сообщениям
Вы не можете скачивать файлы