Важное объявление!
У Нас Все раздачи мультитрекерные, при нуле пиров в релизах, можете смело вставать на закачку!
Статистика раздачи
Размер:     |    Зарегистрирован:     |    Скачан:     |   
Нет
 
     
 
 
Автор Сообщение

HUNTER

Стаж:
5 лет
Сообщений:
67910

Репутация: 101

[+] [-]
Вне форума [Профиль] [ЛС]

Испытайте свой мозг / Test Your Brain (Brain Games, Teste dein Gehirn)
Год выпуска: 2011
Страна: США / National Geographic Television
Жанр: Документальный
Продолжительность: 3 x ~ 00:45:00
Перевод: Профессиональный (одноголосый)
Русские субтитры: нет
Режиссер: Джереми Кроуэлл / Jeremiah Crowell
Описание: Вы хотите узнать, как изображение на сетчатке глаза или звуковые колебания барабанной перепонки преобразуются в визуальную и слуховую картину окружающего нас мира? Что происходит в нашем сознании, как ему удается отфильтровать из огромного количества поступающей информации только нужную в данный момент? Почему, не смотря на миллионы лет эвоюции наших органов чувств, их можно легко обмануть? Над этими вопросами не одно столетие трудятся исследователи в области физиологии, неврологии и психологи, но все еще много тайн хранит наш мозг...
Список и описание серий:
1. Обратите внимание / Watch This! (Pay Attention) / Aufmerksamkeit.
Вы считаете себя очень внимательным? Простые и наглядные тесты, проводимые учеными и иллюзионистами в этой серии покажут, что это не так, далеко не так, как вы себе это представляете. Иллюзионист Дэвид Копперфильд исследует, каким образом мозг направляет внимание, выбирая то, как мы видим и слышим мир и взаимодействуем с ним.
2. Вы не поверите своим глазам / You Won't Believe Your Eyes (Perception) / Sinnest�uschungen.
Кстати, и ушам тоже... А все дело в том, что наш мозг, используя предыдущий опыт, довольно часто вводит нас в заблуждение. Но почему он это делает и главное как? Нейробиолог Бо Лотто приглашает нас в захватывающий мир оптических иллюзий и объясняет, почему мозг иногда вводит нас в заблуждение.
3. Память / Memory (Remember This!) / Ged�chtnis
Вам приходилось что-то долго и безуспешно вспоминать? Неужели забыли? Нет. Наш мозг намеренно "скрывает" от нас часть информации. Но зачем? А если немного постараться, то мы можем забыть даже то, что знаем назубок, например, счет до десяти. Не верите? Тогда посмотрите эту сериию...
Доп. информация: Релиз группы
Во второй серии исправлен недостающий в SATRip и DVB фрагмент аудиодорожки
Качество: BDRip (Источник Blu-Ray)
Формат: AVI
Видео кодек: XviD
Аудио кодек: AC3
Видео: XviD, ~ 1778 Кбит/с, 704x400, 25.000 fps
Аудио #1: Русский (АС3, 2 ch, 192 Кбит/с, 48 kHz)
Аудио #2: English (АС3, 2 ch, 192 Кбит/с, 48 kHz)

Скриншоты



MediaInfo

General
Complete name : N.G.Ispitajte.Svoy.Mozg.(1.serija.iz.3).Obratite.Vnimanie.2011.XviD.BDRip_R.G.DaVinci.avi
Format : AVI
Format/Info : Audio Video Interleave
File size : 701 MiB
Duration : 45mn 4s
Overall bit rate : 2 176 Kbps
Writing application : VirtualDubMod 1.5.10.2 (build 2540/release)
Writing library : VirtualDubMod build 2540/release
Video
ID : 0
Format : MPEG-4 Visual
Format profile : Advanced Simple@L5
Format settings, BVOP : 1
Format settings, QPel : No
Format settings, GMC : No warppoints
Format settings, Matrix : Custom
Codec ID : XVID
Codec ID/Hint : XviD
Duration : 45mn 4s
Bit rate : 1 778 Kbps
Width : 704 pixels
Height : 400 pixels
Display aspect ratio : 16:9
Frame rate : 25.000 fps
Color space : YUV
Chroma subsampling : 4:2:0
Bit depth : 8 bits
Scan type : Progressive
Compression mode : Lossy
Bits/(Pixel*Frame) : 0.253
Stream size : 573 MiB (82%)
Writing library : XviD 64
Audio #1
ID : 1
Format : AC-3
Format/Info : Audio Coding 3
Mode extension : CM (complete main)
Codec ID : 2000
Duration : 45mn 1s
Bit rate mode : Constant
Bit rate : 192 Kbps
Channel(s) : 2 channels
Channel positions : Front: L R
Sampling rate : 48.0 KHz
Bit depth : 16 bits
Compression mode : Lossy
Stream size : 61.8 MiB (9%)
Alignment : Split accross interleaves
Interleave, duration : 40 ms (1.00 video frame)
Interleave, preload duration : 500 ms
Audio #2
ID : 2
Format : AC-3
Format/Info : Audio Coding 3
Mode extension : CM (complete main)
Codec ID : 2000
Duration : 45mn 1s
Bit rate mode : Constant
Bit rate : 192 Kbps
Channel(s) : 2 channels
Channel positions : Front: L R
Sampling rate : 48.0 KHz
Bit depth : 16 bits
Compression mode : Lossy
Stream size : 61.8 MiB (9%)
Alignment : Split accross interleaves
Interleave, duration : 40 ms (1.00 video frame)
Interleave, preload duration : 500 ms

_________________
Показать сообщения:    

Текущее время: Сегодня 04:45

Часовой пояс: GMT



Вы не можете начинать темы
Вы не можете отвечать на сообщения
Вы не можете редактировать свои сообщения
Вы не можете удалять свои сообщения
Вы не можете голосовать в опросах
Вы не можете прикреплять файлы к сообщениям
Вы не можете скачивать файлы