Важное объявление!
У Нас Все раздачи мультитрекерные, при нуле пиров в релизах, можете смело вставать на закачку!
 
Автор Сообщение

HUNTER

Стаж:
4 года 7 месяцев
Сообщений:
61573

Репутация: 101

[+] [-]
Вне форума [Профиль] [ЛС]

Искусство эмоционального баланса - Семинар Рой Мартина
Страна: Москва
Тематика: Психология
Тип раздаваемого материала: Видеоурок
Продолжительность: 12.11.01
Год выпуска: 2005
Язык: Русский
Перевод: Профессиональный (одноголосый)
Описание: Рой Мартина - автор 32 бестселлеров, изданных на различных языках мира. Он является квалифицированным специалистом в области акупунктуры, гомеопатии, фитотерапии, мануальной терапии, цигун, иммунотерапии, иридодиагностики и рефлексотерапии. Он также является обладателем шестого дана черного пояса по карате и остается непобежденным семикратным чемпионом Европы по карате.
Рой Мартина посвятил всю свою жизнь развитию перспективных направлений в области нетрадиционной медицины в лечении хронических заболеваний и достиг в этом выдающихся результатов. Благодаря ему десятки тысяч человек избавились от самых различных трудно поддающихся лечению недугов, от практически неизлечимых болезней.
Все эмоции зарождаются в уме. Основная, крайне важная функция ума - не просто мыслить, по переживать различные эмоции. Эмоции гораздо важнее, чем мысли. Именно из-за несбалансированных эмоций появляются различные недуги, вігутрспиис конфликты, психические и физические болезни. Ваше здоровье -как физическое, так и психическое - напрямую зависит от ваших эмоций.
Самый большой недостаток современных врачей и целителей заключается в том, что они не всегда знают, как последовательно активизировать умственные и душевные силы своих пациентов. Благодаря внутренней перестройке ума можно не только добиться исключительного здоровья, по также достичь значительных успехов в различных сферах жизни.
DVD Video
Видео: MPEG Video ratio : 4:3 640х480 3 833 Kbps 25.000 fps
Аудио: MPEG Audio 224 Kbps 2 channels 48.0 KHz
Еще:

скрытый текст

Format : MPEG-PS
Overall bit rate : 4 139 Kbps
Video
Format : MPEG Video
Format version : Version 2
Format profile : Main@Main
Format settings, BVOP : Yes
Format settings, Matrix : Custom
Format settings, GOP : M=3, N=15
Bit rate mode : Variable
Bit rate : 3 833 Kbps
Nominal bit rate : 8 000 Kbps
Width : 720 pixels
Height : 576 pixels
Display aspect ratio : 4:3
Frame rate : 25.000 fps
Standard : PAL
Color space : YUV
Chroma subsampling : 4:2:0
Bit depth : 8 bits
Scan type : Interlaced
Scan order : Top Field First
Compression mode : Lossy
Bits/(Pixel*Frame) : 0.370
Stream size : 613 MiB (93%)
Audio
Format : MPEG Audio
Format version : Version 1
Format profile : Layer 2
Bit rate mode : Constant
Bit rate : 224 Kbps
Channel(s) : 2 channels
Sampling rate : 48.0 KHz
Compression mode : Lossy
Delay relative to video : -512ms
Stream size : 35.8 MiB (5%)

Скриншоты





_________________
Показать сообщения:    

Текущее время: Сегодня 10:42

Часовой пояс: GMT



Вы не можете начинать темы
Вы не можете отвечать на сообщения
Вы не можете редактировать свои сообщения
Вы не можете удалять свои сообщения
Вы не можете голосовать в опросах
Вы не можете прикреплять файлы к сообщениям
Вы не можете скачивать файлы
Наши партнеры: интернет магазин Ивановского трикотажа textilla.ru