Важное объявление!
У Нас Все раздачи мультитрекерные, при нуле пиров в релизах, можете смело вставать на закачку!
Статистика раздачи
Размер:     |    Зарегистрирован:     |    Скачан:     |   
Нет
 
     
 
 
Автор Сообщение

HUNTER

Стаж:
5 лет 1 месяц
Сообщений:
68426

Репутация: 101

[+] [-]
Вне форума [Профиль] [ЛС]

Искусство эмоционального баланса - Семинар Рой Мартина
Страна: Россия
Тематика: Психология
Тип раздаваемого материала: Видеоурок
Продолжительность: 2:23+2:20+2:22+2:47
Год выпуска: 2005
Язык: Русский
Перевод: Профессиональный (одноголосый)
Описание: Рой Мартина - автор 32 бестселлеров, изданных на различных языках мира. Он является квалифицированным специалистом в области акупунктуры, гомеопатии, фитотерапии, мануальной терапии, цигун, иммунотерапии, иридодиагностики и рефлексотерапии. Он также является обладателем шестого дана черного пояса по карате и остается непобежденным семикратным чемпионом Европы по карате.
Рой Мартина посвятил всю свою жизнь развитию перспективных направлений в области нетрадиционной медицины в лечении хронических заболеваний и достиг в этом выдающихся результатов. Благодаря ему десятки тысяч человек избавились от самых различных трудно поддающихся лечению недугов, от практически неизлечимых болезней.
Все эмоции зарождаются в уме. Основная, крайне важная функция ума - не просто мыслить, по переживать различные эмоции. Эмоции гораздо важнее, чем мысли. Именно из-за несбалансированных эмоций появляются различные недуги, вігутрспиис конфликты, психические и физические болезни. Ваше здоровье -как физическое, так и психическое - напрямую зависит от ваших эмоций.
Самый большой недостаток современных врачей и целителей заключается в том, что они не всегда знают, как последовательно активизировать умственные и душевные силы своих пациентов. Благодаря внутренней перестройке ума можно не только добиться исключительного здоровья, по также достичь значительных успехов в различных сферах жизни.
Качество: DVDRip
Формат: MP4
Видео кодек: H.264
Аудио кодек: AAC
Видео: AVC, 512x384, 4:3, 650 Kbps, 25 fps
Аудио: AAC-LC, 96 Kbps, 48 kHz, 2 Ch

Скриншоты

mediainfo (диск 1)

General
Complete name : F:\TORRENTS\Рой Мартин (mp4)\Part1_512x384.mp4
Format : MPEG-4
Format profile : Base Media / Version 2
Codec ID : mp42
File size : 772 MiB
Duration : 2h 23mn
Overall bit rate : 750 Kbps
Writing application : TMPGEnc Video Mastering Works 5 Version. 5.0.6.38
Video
ID : 2
Format : AVC
Format/Info : Advanced Video Codec
Format profile : High@L3.1
Format settings, CABAC : Yes
Format settings, ReFrames : 3 frames
Codec ID : avc1
Codec ID/Info : Advanced Video Coding
Duration : 2h 23mn
Bit rate mode : Variable
Bit rate : 650 Kbps
Maximum bit rate : 8 000 Kbps
Width : 512 pixels
Height : 384 pixels
Display aspect ratio : 4:3
Frame rate mode : Constant
Frame rate : 25.000 fps
Standard : NTSC
Color space : YUV
Chroma subsampling : 4:2:0
Bit depth : 8 bits
Scan type : Progressive
Bits/(Pixel*Frame) : 0.132
Stream size : 669 MiB (87%)
Writing library : x264 core 114
Encoding settings : cabac=1 / ref=3 / deblock=1:0:0 / analyse=0x3:0x113 / me=hex / subme=7 / psy=1 / psy_rd=1.00:0.00 / mixed_ref=1 / me_range=16 / chroma_me=1 / trellis=1 / 8x8dct=1 / cqm=2 / deadzone=21,11 / fast_pskip=1 / chroma_qp_offset=-4 / threads=3 / sliced_threads=0 / slices=1 / nr=0 / decimate=1 / interlaced=0 / constrained_intra=0 / bframes=3 / b_pyramid=0 / b_adapt=1 / b_bias=0 / direct=1 / weightb=1 / open_gop=0 / weightp=2 / keyint=250 / keyint_min=25 / scenecut=40 / intra_refresh=0 / rc_lookahead=40 / rc=2pass / mbtree=1 / bitrate=650 / ratetol=1.0 / qcomp=0.60 / qpmin=5 / qpmax=69 / qpstep=4 / cplxblur=20.0 / qblur=0.5 / vbv_maxrate=8000 / vbv_bufsize=7995 / nal_hrd=vbr / ip_ratio=1.40 / aq=1:1.00
Color primaries : BT.470-6 System B, BT.470-6 System G, BT.601-6 625, BT.1358 625, BT.1700 625 PAL, BT.1700 625 SECAM
Transfer characteristics : BT.470-6 System B, BT.470-6 System G
Matrix coefficients : BT.470-6 System B, BT.470-6 System G, BT.601-6 625, BT.1358 625, BT.1700 625 PAL, BT.1700 625 SECAM, IEC 61966-2-4 601
Audio
ID : 1
Format : AAC
Format/Info : Advanced Audio Codec
Format profile : LC
Codec ID : 40
Duration : 2h 23mn
Bit rate mode : Variable
Bit rate : 96.0 Kbps
Maximum bit rate : 576 Kbps
Channel(s) : 2 channels
Channel positions : Front: L R
Sampling rate : 48.0 KHz
Compression mode : Lossy
Stream size : 98.9 MiB (13%)

об источнике

Рип с этой раздачи http://rutracker.org/forum/viewtopic.php?t=3831752

_________________
Показать сообщения:    

Текущее время: Сегодня 18:13

Часовой пояс: GMT



Вы не можете начинать темы
Вы не можете отвечать на сообщения
Вы не можете редактировать свои сообщения
Вы не можете удалять свои сообщения
Вы не можете голосовать в опросах
Вы не можете прикреплять файлы к сообщениям
Вы не можете скачивать файлы