Ивановский Торрент трекер
Яндекс.Погода
 

[Цитировать]
димитри37

Ирония судьбы, или С легким паром! (2 серии)
Жанр: лирическая комедия, музыкальны
Год выпуска: 1975
Продолжительность: 03:04:11 (01:39:51 + 01:24:20)
Режиссёр: Эльдар Рязанов
В ролях: Андрей Мягков, Барбара Брыльска, Юрий Яковлев, Ольга Науменко, Любовь Добржанская, Георгий Бурков, Александр Ширвиндт (также текст от автора), Александр Белявский, Лия Ахеджакова, Валентина Талызина (также озвучание Барбары Брыльска), Любовь Соколова, Готлиб Ронинсон, Эльдар Рязанов, Елена Наумкина, Николай Погодин, Александр Постников, Александр Беляев
Описание: 31 декабря, в аккурат под Новый год, московский врач Женя Лукашин со своими друзьями пошел в баню. Ну, традиция у них такая была - попариться перед Новым годом. Вымылись, выпили... Один из них должен был лететь после этого в Ленинград, но кто именно, они уже не вспомнили. В самолет в бессознательном состоянии запихнули Женю, которого дожидалась после бани невеста в московской квартире. Прилетев в Ленинград, Женя назвал таксисту свой московский адрес (оказывается, в Ленинграде тоже есть 3-я улица Строителей), вошел в дом, открыл дверь своим ключом (который идеально подошел к чужой двери - вот вам советское типовое строительство!) и лёг отсыпаться. В это время домой вернулась хозяйка ленинградской квартиры, намереваясь встретить праздник вместе со своим женихом. Ну, что было дальше - вы все (или почти все - ) знаете...
Доп. информация: Лучший фильм года (1976), Андрей Мягков - лучший актер 1976 года (по опросу журнала "Советский экран").
Сценарий: Эмиль Брагинский, Эльдар Рязанов
Оператор: Владимир Нахабцев
Художник: Александр Борисов
Композитор: Микаэл Таривердиев
Стихи: Евгений Евтушенко, Борис Пастернак, Белла Ахмадулина, Михаил Львовский, Александр Аронов, Марина Цветаева, Владимир Киршон, Александр Кочетков
Вокал: Алла Пугачева, Сергей Никитин
Награды: Государственная премия СССР (1977)
Ограничения на просмотр: для любой зрительской аудитории

Качество видео: DVDRip
Формат видео: AVI
Видео:
1 серия - 704x528 (1.33:1), 25 fps, XviD 1.2.1, 1495 kbps avg, 0.16 bit/pixel
2 серия - 704x528 (1.33:1), 25 fps, XviD 1.2.1, 1695 kbps avg, 0.18 bit/pixel
Аудио: 48 kHz, AC3 Dolby Digital, 3/2 (L,C,R,l,r) + LFE ch, 448.00 kbps avg

MediaInfo

Полное имя : Ironija sudby\Part 1.avi
Формат : AVI
Формат/Информация : Audio Video Interleave
Размер файла : 1,36 Гбайт
Продолжительность : 1 ч. 39 м.
Общий поток : 1953 Кбит/сек
Программа кодирования : VirtualDubMod 1.5.10.2 (build 2540/release)
Библиотека кодирования : VirtualDubMod build 2540/release
Видео
Идентификатор : 0
Формат : MPEG-4 Visual
Профиль формата : Advanced Simple@L5
Параметр BVOP формата : 2
Параметр QPel формата : Нет
Параметр GMC формата : Без точки перехода
Параметр матрицы формата : Default (MPEG)
Режим смешивания : Сжатый битовый поток
Идентификатор кодека : DIVX
Идентификатор кодека/Информация : Project Mayo
Идентификатор кодека/Подсказка : DivX 4
Продолжительность : 1 ч. 39 м.
Битрейт : 1495 Кбит/сек
Ширина : 704 пикселя
Высота : 528 пикселей
Соотношение сторон : 4:3
Частота кадров : 25,000 кадров/сек
Цветовое пространство : YUV
Субдискретизация насыщенности : 4:2:0
Битовая глубина : 8 бит
Тип развёртки : Прогрессивная
Метод сжатия : С потерями
Бит/(Пиксели*Кадры) : 0.161
Размер потока : 1,04 Гбайт (77%)
Библиотека кодирования : XviD 1.2.1 (UTC 2008-12-04)
Аудио
Идентификатор : 1
Формат : AC-3
Формат/Информация : Audio Coding 3
Расширение режима : CM (complete main)
Идентификатор кодека : 2000
Продолжительность : 1 ч. 39 м.
Вид битрейта : Постоянный
Битрейт : 448 Кбит/сек
Каналы : 6 каналов
Расположение каналов : Front: L C R, Side: L R, LFE
Частота : 48,0 КГц
Битовая глубина : 16 бит
Метод сжатия : С потерями
Размер потока : 320 Мбайт (23%)
Выравнивание : Разделение по промежуткам
Продолжительность промежутка : 40 мс. (1,00 видеокадр)
Время предзагрузки промежутка : 500 мс.
Полное имя : Ironija sudby\Part 2.avi
Формат : AVI
Формат/Информация : Audio Video Interleave
Размер файла : 1,27 Гбайт
Продолжительность : 1 ч. 24 м.
Общий поток : 2153 Кбит/сек
Программа кодирования : VirtualDubMod 1.5.10.2 (build 2540/release)
Библиотека кодирования : VirtualDubMod build 2540/release
Видео
Идентификатор : 0
Формат : MPEG-4 Visual
Профиль формата : Advanced Simple@L5
Параметр BVOP формата : 2
Параметр QPel формата : Нет
Параметр GMC формата : Без точки перехода
Параметр матрицы формата : Default (MPEG)
Режим смешивания : Сжатый битовый поток
Идентификатор кодека : DIVX
Идентификатор кодека/Информация : Project Mayo
Идентификатор кодека/Подсказка : DivX 4
Продолжительность : 1 ч. 24 м.
Битрейт : 1695 Кбит/сек
Ширина : 704 пикселя
Высота : 528 пикселей
Соотношение сторон : 4:3
Частота кадров : 25,000 кадров/сек
Цветовое пространство : YUV
Субдискретизация насыщенности : 4:2:0
Битовая глубина : 8 бит
Тип развёртки : Прогрессивная
Метод сжатия : С потерями
Бит/(Пиксели*Кадры) : 0.182
Размер потока : 1023 Мбайт (79%)
Библиотека кодирования : XviD 1.2.1 (UTC 2008-12-04)
Аудио
Идентификатор : 1
Формат : AC-3
Формат/Информация : Audio Coding 3
Расширение режима : CM (complete main)
Идентификатор кодека : 2000
Продолжительность : 1 ч. 24 м.
Вид битрейта : Постоянный
Битрейт : 448 Кбит/сек
Каналы : 6 каналов
Расположение каналов : Front: L C R, Side: L R, LFE
Частота : 48,0 КГц
Битовая глубина : 16 бит
Метод сжатия : С потерями
Размер потока : 270 Мбайт (21%)
Выравнивание : Разделение по промежуткам
Продолжительность промежутка : 40 мс. (1,00 видеокадр)
Время предзагрузки промежутка : 500 мс.

Скриншоты названия

Скриншоты

Показать сообщения:    

Текущее время: 19-Окт 13:40

Часовой пояс: UTC - 1


Вы не можете начинать темы
Вы не можете отвечать на сообщения
Вы не можете редактировать свои сообщения
Вы не можете удалять свои сообщения
Вы не можете голосовать в опросах
Вы не можете прикреплять файлы к сообщениям
Вы не можете скачивать файлы

!ВНИМАНИЕ!
Сайт не предоставляет электронные версии произведений, а занимается лишь коллекционированием и каталогизацией ссылок, присылаемых и публикуемых на форуме нашими читателями. Если вы являетесь правообладателем какого-либо представленного материала и не желаете, чтобы ссылка на него находилась в нашем каталоге, свяжитесь с нами, и мы незамедлительно удалим ее. Файлы для обмена на трекере предоставлены пользователями сайта, и администрация не несет ответственности за их содержание. Просьба не заливать файлы, защищенные авторскими правами, а также файлы нелегального содержания!