Важное объявление!
У Нас Все раздачи мультитрекерные, при нуле пиров в релизах, можете смело вставать на закачку!
 
Автор Сообщение

HUNTER

Стаж:
4 года 7 месяцев
Сообщений:
61573

Репутация: 101

[+] [-]
Вне форума [Профиль] [ЛС]

Интимный словарь / The Sleeping Dictionary
Страна: США, Малайзия, Германия
Студия: Fine Line Features, New Line Productions Inc.
Жанр: мелодрама, комедия
Год выпуска: 2003
Продолжительность: 01:49:17
Перевод: Профессиональный (двухголосый закадровый)
Cубтитры: русские, английские
Оригинальная аудиодорожка: английский
Режиссер: Гай Дженкин / Guy Jenkin
В ролях: Джессика Альба, Хью Дэнси, Бренда Блетин, Боб Хоскинс, Кристофер Линг Ли Йен, Юникс Инокян, Майкл Джессинг Лангги, Мано Маниам, К.К. Могги, Эмили Мортимер
Описание: Прекрасная островитянка становится добровольной наложницей английского чиновника. Девушек, подобных нашей героине, называют «интимными словарями»: они помогают колонистам осваивать местный язык и обычаи — в постели. Но на этот раз между обворожительным «интимным словарем» и ее хозяином вспыхивает любовь. К несчастью, влюбленных безжалостно разлучают. Спустя год молодой человек возвращается из Англии уже с женой, но прошлое вторгается в его жизнь и все меняет…

Sample
Тип релиза: WEB-DL 1080p
Контейнер: MKV
Видео: MPEG4 AVC Video, H264, 16:9, 1912x1076, 23.976 fps, 4981 kbps
Аудио: Russian (AC3, 6 ch, 448 kbps, 16 bits, 48.0 KHz) - DVO
Аудио 2: English (AC3, 6 ch, 384 kbps, 16 bits, 48.0 KHz) - оригинал
Формат субтитров: softsub (SRT)

MediaInfo

General
Unique ID : 234854857333013555175955902018230834550 (0xB0AF66759ED013788769711273F65576)
Complete name : E:\The Sleeping Dictionary 2003 WEB-DL 1080p.mkv
Format : Matroska
Format version : Version 4 / Version 2
File size : 4.53 GiB
Duration : 1h 49mn
Overall bit rate : 5 931 Kbps
Encoded date : UTC 2015-12-15 09:09:35
Writing application : mkvmerge v6.1.0 ('Old Devil') built on Mar 2 2013 14:32:37
Writing library : libebml v1.3.0 + libmatroska v1.4.0
Video
ID : 1
Format : AVC
Format/Info : Advanced Video Codec
Format profile : High@L4.0
Format settings, CABAC : Yes
Format settings, ReFrames : 4 frames
Codec ID : V_MPEG4/ISO/AVC
Duration : 1h 49mn
Bit rate : 4 981 Kbps
Width : 1 912 pixels
Height : 1 076 pixels
Display aspect ratio : 16:9
Frame rate mode : Constant
Frame rate : 23.976 fps
Color space : YUV
Chroma subsampling : 4:2:0
Bit depth : 8 bits
Scan type : Progressive
Bits/(Pixel*Frame) : 0.101
Stream size : 3.80 GiB (84%)
Language : English
Default : Yes
Forced : No
Color primaries : BT.709
Transfer characteristics : BT.709
Matrix coefficients : BT.709
Audio #1
ID : 2
Format : AC-3
Format/Info : Audio Coding 3
Mode extension : CM (complete main)
Format settings, Endianness : Big
Codec ID : A_AC3
Duration : 1h 49mn
Bit rate mode : Constant
Bit rate : 448 Kbps
Channel count : 6 channels
Channel positions : Front: L C R, Side: L R, LFE
Sampling rate : 48.0 KHz
Bit depth : 16 bits
Compression mode : Lossy
Stream size : 350 MiB (8%)
Language : Russian
Default : Yes
Forced : No
Audio #2
ID : 3
Format : AC-3
Format/Info : Audio Coding 3
Mode extension : CM (complete main)
Format settings, Endianness : Big
Codec ID : A_AC3
Duration : 1h 49mn
Bit rate mode : Constant
Bit rate : 384 Kbps
Channel count : 6 channels
Channel positions : Front: L C R, Side: L R, LFE
Sampling rate : 48.0 KHz
Bit depth : 16 bits
Compression mode : Lossy
Stream size : 300 MiB (6%)
Language : English
Default : No
Forced : No
Text #1
ID : 4
Format : UTF-8
Codec ID : S_TEXT/UTF8
Codec ID/Info : UTF-8 Plain Text
Language : Russian
Default : No
Forced : No
Text #2
ID : 5
Format : UTF-8
Codec ID : S_TEXT/UTF8
Codec ID/Info : UTF-8 Plain Text
Language : English
Default : No
Forced : No
Menu
00:00:00.000 : en:Welcome to Sarawak/Title
00:05:20.000 : en:To Refuse Is to Insult
00:12:19.000 : en:How to Learn the Language
00:17:34.000 : en:Playing a Joke on Truscott
00:20:05.000 : en:A Chance at Reemployment
00:24:02.000 : en:The Dance of an Englishman
00:26:58.000 : en:Education Like Oxygen
00:30:54.000 : en:The School of Love
00:36:49.000 : en:An English Officer's Duty
00:40:48.000 : en:Sorting Out Disputes
00:43:45.000 : en:A Reasonably Sudden Offer
00:47:47.000 : en:Mystery Epidemic
00:52:23.000 : en:Tell Them
00:55:35.000 : en:Marriage Plans
00:57:12.000 : en:The Way Things Are Done
01:01:39.000 : en:One Year Later/Start Over
01:05:33.000 : en:All About Selima
01:08:17.000 : en:How to Judge a Man
01:11:26.000 : en:I Want to See My Son
01:14:48.000 : en:Wrecking Another Generation
01:19:35.000 : en:Judge, Jury and Liberator
01:24:58.000 : en:Cecil's Announcement
01:28:15.000 : en:Happy Enough
01:33:04.000 : en:The Many Long Goodbyes
01:37:28.000 : en:The Hunt for John Truscott
01:41:21.000 : en:Moving On
01:44:19.000 : en:End Credits

Скриншоты


_________________
Показать сообщения:    

Текущее время: Сегодня 07:23

Часовой пояс: GMT



Вы не можете начинать темы
Вы не можете отвечать на сообщения
Вы не можете редактировать свои сообщения
Вы не можете удалять свои сообщения
Вы не можете голосовать в опросах
Вы не можете прикреплять файлы к сообщениям
Вы не можете скачивать файлы
Наши партнеры: интернет магазин Ивановского трикотажа textilla.ru