Важное объявление!
У Нас Все раздачи мультитрекерные, при нуле пиров в релизах, можете смело вставать на закачку!
 
Автор Сообщение

HUNTER

Стаж:
4 года 10 месяцев
Сообщений:
65557

Репутация: 101

[+] [-]
Вне форума [Профиль] [ЛС]

Интерстеллар / Interstellar--

  • Год выпуска: 2014
  • Страна: США, Великобритания
  • Жанр: Фантастика, боевик, детектив, приключения
  • Продолжительность: 02:49:04
  • Перевод: Дублированный [Лицензия]
  • Субтитры: Русские, английские
  • В ролях: Мэттью МакКонахи, Энн Хэтэуэй, Кейси Аффлек, Джессика Честейн, Тофер Грейс, Уэс Бентли, Майкл Кейн, Маккензи Фой, Джон Литгоу, Эллен Бёрстин
  • Режиссёр: Кристофер Нолан

    Когда засуха приводит человечество к продовольственному кризису, коллектив исследователей и учёных отправляется сквозь червоточину (которая предположительно соединяет области пространства-времени через большое расстояние) в путешествие, чтобы превзойти прежние ограничения для космических путешествий человека и переселить человечество на другую планету.--
  • Качество: BDRip 1080p IMAX EDITION
  • Формат: MKV
  • Видео кодек: AVC
  • Аудио кодек: AC3, DTS
  • Видео: AVC at 9999 Кбит/сек, 1920 x 1080 (1.778) at 23.976 fps
  • Аудио: AC3, 640 kb/s (6 ch), 48 Кгц - Русский
  • Аудио: AC3, 640 kb/s (6 ch), 48 Кгц - Украинский
--[url=] [/url]

MI

Код: copyText_writeLink('this.parentNode.parentNode.nextSibling.nextSibling');
Код:
Формат                                   : Matroska
Версия формата                           : Version 2
Размер файла                             : 20,2 Гбайт
Продолжительность                        : 2 ч. 49 м.
Общий поток                              : 17,1 Мбит/сек
Название фильма                          : Интерстеллар.2014.Rip by: ollan
Дата кодирования                         : UTC 2015-03-22 22:16:15
Программа кодирования                    : mkvmerge v5.6.0 ('Kenya Kane') built on May 27 2012 16:44:04
Библиотека кодирования                   : libebml v1.2.3 + libmatroska v1.3.0
Видео
Идентификатор                            : 1
Формат                                   : AVC
Формат/Информация                        : Advanced Video Codec
Профиль формата                          : High@L4.1
Параметр CABAC формата                   : Да
Параметр ReFrames формата                : 4 кадра
Идентификатор кодека                     : V_MPEG4/ISO/AVC
Продолжительность                        : 2 ч. 49 м.
Битрейт                                  : 9999 Кбит/сек
Ширина                                   : 1920 пикселей
Высота                                   : 1080 пикселей
Соотношение сторон                       : 16:9
Режим частоты кадров                     : Постоянный
Частота кадров                           : 23,976 кадра/сек
Цветовое пространство                    : YUV
Субдискретизация насыщенности            : 4:2:0
Битовая глубина                          : 8 бит
Тип развёртки                            : Прогрессивная
Бит/(Пиксели*Кадры)                      : 0.201
Размер потока                            : 11,4 Гбайт (57%)
Библиотека кодирования                   : x264 core 125 r2200 999b753
Настройки программы                      : cabac=1 / ref=4 / deblock=1:-3:-3 / analyse=0x3:0x133 / me=umh / subme=11 / psy=1 / psy_rd=1.00:0.10 / mixed_ref=1 / me_range=32 / chroma_me=1 / trellis=2 / 8x8dct=1 / cqm=0 / deadzone=21,11 / fast_pskip=0 / chroma_qp_offset=-3 / threads=12 / lookahead_threads=2 / sliced_threads=0 / nr=0 / decimate=0 / interlaced=0 / bluray_compat=0 / constrained_intra=0 / bframes=9 / b_pyramid=2 / b_adapt=2 / b_bias=0 / direct=3 / weightb=1 / open_gop=0 / weightp=2 / keyint=240 / keyint_min=23 / scenecut=40 / intra_refresh=0 / rc_lookahead=60 / rc=2pass / mbtree=1 / bitrate=9999 / ratetol=1.0 / qcomp=0.60 / qpmin=0 / qpmax=69 / qpstep=4 / cplxblur=20.0 / qblur=0.5 / ip_ratio=1.40 / aq=1:1.00
Язык                                     : English
Default                                  : Да
Forced                                   : Нет
Аудио #1
Идентификатор                            : 2
Формат                                   : AC-3
Формат/Информация                        : Audio Coding 3
Расширение режима                        : CM (complete main)
Параметр Endianness формата              : Big
Идентификатор кодека                     : A_AC3
Продолжительность                        : 2 ч. 49 м.
Вид битрейта                             : Постоянный
Битрейт                                  : 640 Кбит/сек
Каналы                                   : 6 каналов
Расположение каналов                     : Front: L C R, Side: L R, LFE
Частота                                  : 48,0 КГц
Битовая глубина                          : 16 бит
Метод сжатия                             : С потерями
Размер потока                            : 774 Мбайт (4%)
Заголовок                                : Дублированный (Лицензия)
Язык                                     : Russian
Default                                  : Да
Forced                                   : Нет
Аудио #2
Идентификатор                            : 3
Формат                                   : AC-3
Формат/Информация                        : Audio Coding 3
Расширение режима                        : CM (complete main)
Параметр Endianness формата              : Big
Идентификатор кодека                     : A_AC3
Продолжительность                        : 2 ч. 49 м.
Вид битрейта                             : Постоянный
Битрейт                                  : 640 Кбит/сек
Каналы                                   : 6 каналов
Расположение каналов                     : Front: L C R, Side: L R, LFE
Частота                                  : 48,0 КГц
Битовая глубина                          : 16 бит
Метод сжатия                             : С потерями
Размер потока                            : 774 Мбайт (4%)
Заголовок                                : Дублированный (Лицензия)
Язык                                     : Ukrainian
Default                                  : Нет
Forced                                   : Нет
Текст #1
Идентификатор                            : 9
Формат                                   : UTF-8
Идентификатор кодека                     : S_TEXT/UTF8
Идентификатор кодека/Информация          : UTF-8 Plain Text
Заголовок                                : Forced
Язык                                     : Russian
Default                                  : Да
Forced                                   : Нет
Текст #2
Идентификатор                            : 10
Формат                                   : UTF-8
Идентификатор кодека                     : S_TEXT/UTF8
Идентификатор кодека/Информация          : UTF-8 Plain Text
Язык                                     : Russian
Default                                  : Нет
Forced                                   : Нет
Текст #3
Идентификатор                            : 11
Формат                                   : UTF-8
Идентификатор кодека                     : S_TEXT/UTF8
Идентификатор кодека/Информация          : UTF-8 Plain Text
Язык                                     : English
Default                                  : Нет
Forced                                   : Нет
Меню
00:00:00.000                             : en:00:00:00.000
00:09:35.491                             : en:00:09:35.491
00:17:12.322                             : en:00:17:12.322
00:25:00.749                             : en:00:25:00.749
00:35:45.393                             : en:00:35:45.393
00:42:16.867                             : en:00:42:16.867
00:50:19.891                             : en:00:50:19.891
00:54:48.076                             : en:00:54:48.076
00:58:59.702                             : en:00:58:59.702
01:06:15.012                             : en:01:06:15.012
01:17:28.185                             : en:01:17:28.185
01:25:32.001                             : en:01:25:32.001
01:34:31.999                             : en:01:34:31.999
01:46:14.701                             : en:01:46:14.701
01:55:34.552                             : en:01:55:34.552
02:02:14.368                             : en:02:02:14.368
02:12:56.843                             : en:02:12:56.843
02:20:53.820                             : en:02:20:53.820
02:35:12.094                             : en:02:35:12.094
02:43:59.830                             : en:02:43:59.830

Скриншоты


_________________
Показать сообщения:    

Текущее время: Сегодня 18:46

Часовой пояс: GMT



Вы не можете начинать темы
Вы не можете отвечать на сообщения
Вы не можете редактировать свои сообщения
Вы не можете удалять свои сообщения
Вы не можете голосовать в опросах
Вы не можете прикреплять файлы к сообщениям
Вы не можете скачивать файлы