Важное объявление!
У Нас Все раздачи мультитрекерные, при нуле пиров в релизах, можете смело вставать на закачку!
 
Автор Сообщение

димитри37

Стаж:
3 года 10 месяцев
Сообщений:
1237

Репутация: 127

[+] [-]
Вне форума [Профиль] [ЛС]

Интерны 8-ой сезон
Производство: Россия, Comedy Club Production
Жанр: Ситком
Продолжительность: ~ 00:25:00
Режиссёр: Максим Пежемский, Заур Болотаев, Милан Килибарда,
Евгений Невский, Радда Новикова
В ролях: Иван Охлобыстин, Кристина Асмус, Илья Глинников, Александр Ильин, Байрон Один Ланд,
Вадим Демчог, Светлана Камынина, Светлана Пермякова
Описание: Главные герои ситкома — четыре интерна. Они все время попадают в идиотские ситуации,
а их руководитель доктор Быков с удовольствием за этим наблюдает.
Доводить интернов до белого каления Быкову помогает друг доктор Купитман
и мешает главврач больницы Анастасия Кисегач.
Запись со спутника ABS - 1

Качество: DVB
Формат: MPEG-PS
Видео кодек: MPEG2
Аудио кодек: MP2
Видео: 720х576, 4:3, 3800 Kbps, 25 fps
Аудио: 256 Kbps, 48.0 KHz, 2 ch

Раздача ведется путем добавления новых серий

Внимание! Раздача ведётся путём добавления новых серий; при каждом добавлении создётся новый торрент. Чтобы начать докачку новой серии, пользователям необходимо сделать следующее:
(1) остановить скачивание,
(2) удалить старый торрент у себя из клиента (старые серии удалять не надо),
(3) скачать новый торрент и запустить его у себя в клиенте вместо старого, при этом указать клиенту путь в старую папку куда и должно происходить скачивание новых серий.
Ваш клиент при этом должен произвести хеширование (проверку) старой папки (если не производит сам - помогите ему сделать это), и будет докачивать только те серии которых у вас ещё нет. Старые серии при этом не удаляются, а продолжают раздаваться!
Eсли вы уже удалили старые серии, то предотвратить повторную закачку старых серий можно, отжав галочку в соответствующих местах при запуске нового торрента.

MI

F:\КОМЕДИИ\Интерны (8 сезон)\Интерны - 141 серия.mpg
General
Complete name : F:\КОМЕДИИ\Интерны (8 сезон)\Интерны - 141 серия.mpg
Format : MPEG-PS
File size : 722 MiB
Duration : 24mn 27s
Overall bit rate mode : Variable
Overall bit rate : 4 127 Kbps
Writing library : (c) 1998-2011 Womble Multimedia, Inc. / MPEG Video Wizard DVD 5.0.1.100 (03/2011) / May 27 2011
Video #224
ID : 224 (0xE0)
Format : MPEG Video
Format version : Version 2
Format profile : Main@Main
Format settings, BVOP : Yes
Format settings, Matrix : Custom
Duration : 24mn 27s
Bit rate mode : Variable
Bit rate : 3 800 Kbps
Width : 720 pixels
Height : 576 pixels
Display aspect ratio : 4:3
Frame rate : 25.000 fps
Standard : PAL
Color space : YUV
Chroma subsampling : 4:2:0
Bit depth : 8 bits
Compression mode : Lossy
Bits/(Pixel*Frame) : 0.367
Stream size : 663 MiB (92%)
Writing library : (c) 1998-2011 Womble Multimedia, Inc. / MPEG Video Wizard DVD 5.0.1.100 (03/2011) / May 27 2011
Audio #192
ID : 192 (0xC0)
Format : MPEG Audio
Format version : Version 1
Format profile : Layer 2
Duration : 24mn 27s
Bit rate mode : Constant
Bit rate : 256 Kbps
Channel(s) : 2 channels
Sampling rate : 48.0 KHz
Compression mode : Lossy
Stream size : 44.8 MiB (6%)

Скриншоты

-
Показать сообщения:    

Текущее время: Сегодня 10:29

Часовой пояс: GMT



Вы не можете начинать темы
Вы не можете отвечать на сообщения
Вы не можете редактировать свои сообщения
Вы не можете удалять свои сообщения
Вы не можете голосовать в опросах
Вы не можете прикреплять файлы к сообщениям
Вы не можете скачивать файлы
Наши партнеры: интернет магазин Ивановского трикотажа textilla.ru