Важное объявление!
У Нас Все раздачи мультитрекерные, при нуле пиров в релизах, можете смело вставать на закачку!
 
Автор Сообщение

HUNTER

Стаж:
4 года 5 месяцев
Сообщений:
60857

Репутация: 101

[+] [-]
Вне форума [Профиль] [ЛС]

Интеркосмос. Орбиты сотрудничества
Дата/Год выпуска: 1987
Страна: СССР
Жанр: документальный
Продолжительность: 00:20:40
Перевод: Не требуется
Режиссер: В. Ман
Описание: Фильм рассказывает о двадцатилетнем сотрудничестве учёных социалистических стран по программе освоения космического пространства "Интеркосмос" принятой в 1967 году. О достижениях и перспективах международного сотрудничества рассказывает начальник Центра подготовки космонавтов В. Шаталов, метеорологи Т. Иванидзе и А. Ляхов, лётчик-космонавт В. Джанибеков, заместитель директора Физического института АН Чехословакии А. Триска
Доп. информация: Фильм оцифрован с кинопленки 16-мм
качество: VHSRip
формат: AVI
Видео: XviD, 4:3, 720х544, 1350 kbps, 25 fps
Аудио: МР-3, 128 kbps, 48 kHz, 2 ch

MediaInfo

ОбщееПолное имя :Интеркосмос. Орбиты сотрудничества.aviФормат : AVIФормат/Информация : Audio Video InterleaveРазмер файла : 200 МбайтПродолжительность : 20 м.Общий поток : 1350 Кбит/секПрограмма кодирования : VirtualDubMod 1.5.4.1 (build 2178/release)Библиотека кодирования : VirtualDubMod build 2178/release
ВидеоИдентификатор : 0Формат : MPEG-4 VisualПрофиль формата : Advanced Simple@L5Параметр BVOP формата : 1Параметр QPel формата : НетПараметр GMC формата : Без точки переходаПараметр матрицы формата : ВыборочнаяИдентификатор кодека : XVIDИдентификатор кодека/Подсказка : XviDПродолжительность : 20 м.Битрейт : 1215 Кбит/секШирина : 720 пикселейВысота : 544 пикселяСоотношение сторон : 4:3Частота кадров : 25,000 кадров/секЦветовое пространство : YUVСубдискретизация насыщенности : 4:2:0Битовая глубина : 8 битТип развёртки : ПрогрессивнаяМетод сжатия : С потерямиБит/(Пиксели*Кадры) : 0.124Размер потока : 180 Мбайт (90%)Библиотека кодирования : XviD 64
АудиоИдентификатор : 1Формат : MPEG AudioВерсия формата : Version 1Профиль формата : Layer 3Режим : Joint stereoРасширение режима : MS StereoИдентификатор кодека : 55Идентификатор кодека/Подсказка : MP3Продолжительность : 20 м.Вид битрейта : ПостоянныйБитрейт : 128 Кбит/секКаналы : 2 каналаЧастота : 48,0 КГцМетод сжатия : С потерямиРазмер потока : 18,9 Мбайт (9%)Выравнивание : Соединение по промежуткамПродолжительность промежутка : 80 мс. (2,00 видеокадра)Время предзагрузки промежутка : 504 мс.Библиотека кодирования : LAME3.98rНастройки программы : -m j -V 4 -q 2 -lowpass 17 -b 128

Скриншоты

, , ,

_________________
Показать сообщения:    

Текущее время: Сегодня 01:21

Часовой пояс: GMT



Вы не можете начинать темы
Вы не можете отвечать на сообщения
Вы не можете редактировать свои сообщения
Вы не можете удалять свои сообщения
Вы не можете голосовать в опросах
Вы не можете прикреплять файлы к сообщениям
Вы не можете скачивать файлы
Наши партнеры: интернет магазин Ивановского трикотажа textilla.ru