Важное объявление!
У Нас Все раздачи мультитрекерные, при нуле пиров в релизах, можете смело вставать на закачку!
 
Автор Сообщение

HUNTER

Стаж:
4 года 8 месяцев
Сообщений:
62034

Репутация: 101

[+] [-]
Вне форума [Профиль] [ЛС]

Интервью / The Interview--

-
-Страна: США
Жанр: Боевик, комедия
Год выпуска: 2014
Продолжительность: 01:52:10--Перевод: Любительский (многоголосый закадровый) |Студия Пиратского Дубляжа|
Cубтитры: нет
Оригинальная аудиодорожка: английский--Режиссер: Эван Голдберг / Evan Goldberg, Сет Роген / Seth Rogen--В ролях: Джеймс Франко, Сет Роген, Лиззи Каплан, Рэндолл Парк, Диана Банг, Тимоти С. Саймонс, Риз Александр, Джеймс Йи, Пол Бай, Джофф Густафссон--Описание: Дэйв — фантастически талантливый журналист популярного ток-шоу, продюсирует которое его лучший друг Аарон. Друзья, давно мечтавшие сделать что-то по-настоящему значимое, решают взять интервью у северокорейского диктатора Ким Чен Ына. Вскоре к ним обращается ЦРУ, которое просит наших героев ни много ни мало — убить Кима. Так начинается веселая история о двух наименее квалифицированных наемных убийцах в истории человечества…--Сэмпл--Качество видео: WEB-DL
Формат видео: MKV--Видео: AVC, 1920x800p, 23.976 fps, 5 119 Kbps
Аудио: AC-3, 48.0 KHz, 384 Kbps (6 Ch.) - Russian
Аудио 2: AAC, 48.0 KHz, 192 Kbps (2 Ch.) - English-
-

MediaInfo

General
Unique ID : 232586172857202472531662269608198958326 (0xAEFA77ADCAD91EC6AE019A5683A86CF6)
Complete name : C:\Download\The.Interview.2014.P.WEB-DL.1080p.uniongang.tv.mkv
Format : Matroska
Format version : Version 2
File size : 4.55 GiB
Duration : 1h 52mn
Overall bit rate mode : Variable
Overall bit rate : 5 811 Kbps
Movie name : The.Interview.2014.P.WEB-DL.1080p.ELEKTRI4KA [3imeMachi9e]
Encoded date : UTC 2014-12-28 12:05:30
Writing application : mkvmerge v5.8.0 ('No Sleep / Pillow') built on Sep 2 2012 15:37:04
Writing library : libebml v1.2.3 + libmatroska v1.3.0
Video
ID : 1
Format : AVC
Format/Info : Advanced Video Codec
Format profile : High@L4.0
Format settings, CABAC : Yes
Format settings, ReFrames : 2 frames
Format settings, GOP : M=2, N=12
Codec ID : V_MPEG4/ISO/AVC
Duration : 1h 52mn
Bit rate mode : Variable
Bit rate : 5 119 Kbps
Maximum bit rate : 6 000 Kbps
Width : 1 920 pixels
Height : 800 pixels
Display aspect ratio : 2.40:1
Frame rate mode : Constant
Frame rate : 23.976 fps
Color space : YUV
Chroma subsampling : 4:2:0
Bit depth : 8 bits
Scan type : Progressive
Bits/(Pixel*Frame) : 0.139
Stream size : 4.01 GiB (88%)
Title : The.Interview.2014.P.WEB-DL.1080p.ELEKTRI4KA [3imeMachi9e]
Language : Russian
Default : Yes
Forced : No
Audio #1
ID : 2
Format : AC-3
Format/Info : Audio Coding 3
Mode extension : CM (complete main)
Format settings, Endianness : Big
Codec ID : A_AC3
Duration : 1h 52mn
Bit rate mode : Constant
Bit rate : 384 Kbps
Channel(s) : 6 channels
Channel positions : Front: L C R, Side: L R, LFE
Sampling rate : 48.0 KHz
Bit depth : 16 bits
Compression mode : Lossy
Delay relative to video : 24ms
Stream size : 308 MiB (7%)
Title : P - The.Interview.2014.P.WEB-DL.1080p.ELEKTRI4KA [3imeMachi9e]
Language : Russian
Default : Yes
Forced : Yes
Audio #2
ID : 3
Format : AC-3
Format/Info : Audio Coding 3
Mode extension : CM (complete main)
Format settings, Endianness : Big
Codec ID : A_AC3
Duration : 1h 52mn
Bit rate mode : Constant
Bit rate : 192 Kbps
Channel(s) : 2 channels
Channel positions : Front: L R
Sampling rate : 48.0 KHz
Bit depth : 16 bits
Compression mode : Lossy
Stream size : 154 MiB (3%)
Title : Original - The.Interview.2014.P.WEB-DL.1080p.ELEKTRI4KA [3imeMachi9e]
Language : English
Default : No
Forced : No

Скриншот c названием фильма

Скриншоты


_________________
Показать сообщения:    

Текущее время: Сегодня 23:36

Часовой пояс: GMT



Вы не можете начинать темы
Вы не можете отвечать на сообщения
Вы не можете редактировать свои сообщения
Вы не можете удалять свои сообщения
Вы не можете голосовать в опросах
Вы не можете прикреплять файлы к сообщениям
Вы не можете скачивать файлы
Наши партнеры: интернет магазин Ивановского трикотажа textilla.ru