Важное объявление!
У Нас Все раздачи мультитрекерные, при нуле пиров в релизах, можете смело вставать на закачку!
 
Автор Сообщение

HUNTER

Стаж:
4 года 7 месяцев
Сообщений:
61614

Репутация: 101

[+] [-]
Вне форума [Профиль] [ЛС]


Интенсивный тренинг. Коррекция женского тела-Год выпуска: 2001
Страна: Россия
Сайт производителя: отсутствуeт
Тематика: Xатха-йоги
Тип материала: Обучающее видео-Продолжительность: 01:31:11
Автор: Александр Миронов-Язык: Русский
Субтитры: отсутствуют-Описание: Комплексная программа с элементами: калланетики, шейпинга, стретчинга, хатха-йоги, кундалини-йоги. Интенсивный тренинг для женщин, с вариантами для мужчин. Никакие диеты, таблетки и кремы не сделают Ваши бедра и ягодицы упругими и соблазнительными, позвоночник здоровым и гибким, а походку - легкой и грациозной…-Качество: DVDRip
Формат: AVI
Видео кодек: XviD
Аудио кодек: AC3
Видео: 512x384 (1.33:1), 25 fps, XviD MPEG-4 ~1794 kbps avg, 0.36 bit/pixel
Аудио: 44.1 kHz, AC3 Dolby Digital, 2/0 (L,R) ch, ~192 kbps-

MediaInfo

Код: copyText_writeLink('this.parentNode.parentNode.nextSibling.nextSibling'); Общее
Полное имя : D:\обуч\intensivnii_trening_korrekcia_jenskogo_tela.avi
Формат : AVI
Формат/Информация : Audio Video Interleave
Профиль формата : OpenDML
Размер файла : 1,27 Гбайт
Продолжительность : 1 ч. 31 м.
Общий поток : 1994 Кбит/сек
Видео
Идентификатор : 0
Формат : MPEG-4 Visual
Профиль формата : Advanced Simple@L5
Параметр BVOP формата : 1
Параметр QPel формата : Нет
Параметр GMC формата : Без точки перехода
Параметр матрицы формата : Default (H.263)
Режим смешивания : Сжатый битовый поток
Идентификатор кодека : XVID
Идентификатор кодека/Подсказка : XviD
Продолжительность : 1 ч. 31 м.
Битрейт : 1799 Кбит/сек
Ширина : 512 пикселей
Высота : 384 пикселя
Соотношение сторон : 4:3
Частота кадров : 25,000 кадров/сек
Цветовое пространство : YUV
Субдискретизация насыщенности : 4:2:0
Битовая глубина : 8 бит
Тип развёртки : Прогрессивная
Метод сжатия : С потерями
Бит/(Пиксели*Кадры) : 0.366
Размер потока : 1,15 Гбайт (90%)
Библиотека кодирования : XviD 1.2.1 (UTC 2008-12-04)
Аудио
Идентификатор : 1
Формат : AC-3
Формат/Информация : Audio Coding 3
Расширение режима : CM (complete main)
Параметр Endianness формата : Big
Идентификатор кодека : 2000
Продолжительность : 1 ч. 31 м.
Вид битрейта : Постоянный
Битрейт : 192 Кбит/сек
Каналы : 2 канала
Расположение каналов : Front: L R
Частота : 44,1 КГц
Битовая глубина : 16 бит
Метод сжатия : С потерями
Размер потока : 125 Мбайт (10%)
Выравнивание : Соединение по промежуткам
Продолжительность промежутка : 1000 мс. (25,00 видеокадров)

Скриншоты

-

_________________
Показать сообщения:    

Текущее время: Сегодня 16:10

Часовой пояс: GMT



Вы не можете начинать темы
Вы не можете отвечать на сообщения
Вы не можете редактировать свои сообщения
Вы не можете удалять свои сообщения
Вы не можете голосовать в опросах
Вы не можете прикреплять файлы к сообщениям
Вы не можете скачивать файлы
Наши партнеры: интернет магазин Ивановского трикотажа textilla.ru