Ивановский Торрент трекер
Яндекс.Погода
 

[Цитировать]
HUNTER

Интегральный мир / серии 1-26 из 26 -Название: Интегральный мир
Год выпуска: 2011-2012
Страна: Россия, Израиль
Производство: Ari Films
Жанр: телепередача
Продолжительность: 28:00:30
Перевод: оригинал (русский язык)
Субтитры: нет-В ролях: М. Лайтман, М. Санилевич, Е. Фридман, И. Руднева, С. Винокур, Э. Винокур
Режиссёр: Семён Винокур-Описание: Когда мы достигнем между собой интегральной связи, каждый из нас получит абсолютное знание, абсолютное ощущение всего мироздания. Он станет той же свободной птицей, связанной со всеми остальными. Но одновременно с этим им никто не будет управлять, кроме общего желания, общей цели, общего плана. То есть ты становишься связанным со всеми и в то же время абсолютно свободным...-Качество: WEB-DLRip
Формат: MP4
Видеокодек: MPEG-4 AVC (H.264)
Аудиокодек: ACC
Видео: 720 x 400, 25,000 fps, 450 Kbps, 0.063 bit/pixel
Аудио: 44,1 kHz, 1 ch, 32 kb/s- Аудиоверсия телепередачи «Интегральный мир» / выпуски 1-26 из 26

Скриншоты

MediaInfo


ОбщееПолное имя : teleprogramma.Integralnyj_mir.2011-2013.WEB-DLRip.Rus.Mp4\2011-08-14_Движение_Взаимное_поручительство.mp4Формат : MPEG-4Профиль формата : Base MediaИдентификатор кодека : isomРазмер файла : 212 МбайтПродолжительность : 1 ч. 0 м.Режим общего битрейта : ПеременныйОбщий поток : 489 Кбит/секПрограмма кодирования : Lavf52.93.0
ВидеоИдентификатор : 1Формат : AVCФормат/Информация : Advanced Video CodecПрофиль формата : Baseline@L3.0Параметр CABAC формата : НетПараметр ReFrames формата : 1 кадрИдентификатор кодека : avc1Идентификатор кодека/Информация : Advanced Video CodingПродолжительность : 1 ч. 0 м.Битрейт : 450 Кбит/секШирина : 720 пикселейВысота : 400 пикселейСоотношение сторон : 16:9Режим частоты кадров : ПостоянныйЧастота кадров : 25,000 кадров/секЦветовое пространство : YUVСубдискретизация насыщенности : 4:2:0Битовая глубина : 8 битТип развёртки : ПрогрессивнаяБит/(Пиксели*Кадры) : 0.063Размер потока : 196 Мбайт (93%)Библиотека кодирования : x264 core 112
АудиоИдентификатор : 2Формат : AACФормат/Информация : Advanced Audio CodecПрофиль формата : LCИдентификатор кодека : 40Продолжительность : 1 ч. 0 м.Вид битрейта : ПеременныйБитрейт : 32,0 Кбит/секКаналы : 2 каналаOriginal Channel count : 1 каналРасположение каналов : Front: CЧастота : 44,1 КГцМетод сжатия : С потерямиРазмер потока : 13,9 Мбайт (7%)

Список серий


01. 2011-08-14_Движение_Взаимное_поручительство - (60:41)
02. 2011-08-21_Беседа_о_поручительстве - (59:13)
03. 2011-08-28_Безопасность_Израиля - (72:14)
04. 2011-09-04_Глобальное_воспитание_1 - (58:09)
05. 2011-09-07_Глобальное_воспитание_2 - (62:22)
06. 2011-09-25_Глобальное_воспитание_3 - (75:39)
07. 2011-10-16_Мир_эгоистический_и_мир_интегральный - (55:37)
08. 2011-10-30_Взаимная_зависимость - (63:07)
09. 2011-12-23_Взаимная_ответственность_4 - (23:47)
10. 2011-12-28_Сердце_и_разум - (45:02)
11. 2011-12-30_СНГ_сегодня - (59:10)
12. 2012-06-07_Методика_решения_конфликтов - (27:14)
13. 2012-06-10_Интегральное_воспитание_1 - (33:42)
14. 2012-06-11_Интегральное_воспитание_2 - (63:37)
15. 2012-06-14_Интегральное_воспитание_3 - (60:36)
16. 2012-07-01_Формула_интегрального_общества_1 - (91:47)
17. 2012-07-02_Формула_интегрального_общества_2 - (82:26)
18. 2012-07-03_Формула_интегрального_общества_3 - (106:03)
19. 2012-07-04_Формула_интегрального_общества_4 - (99:10)
20. 2012-11-26_Интегральный_мир_1 - (94:04)
21. 2012-11-27_Интегральный_мир_2 - (52:23)
22. 2012-11-27_Интегральный_мир_3 - (49:06)
23. 2012-11-28_Интегральный_мир_4 - (60:02)
24. 2013-10-24_Интегральное_воспитание_современного_человека - (89:02)
25. 2013-10-25_Учебник_по_интегральному_воспитанию - (83:35)
26. 2013-10-27_Гомеостатическое_состояние-цель_вселенной - (52:29)

Внимание! Раздача ведётся путём добавления новых выпусков

Внимание! Раздача ведётся путём добавления новых выпусков; при каждом добавлении создаётся новый торрент. Чтобы начать докачку нового выпуска, пользователям необходимо сделать следующее:
(1) остановить скачивание,
(2) удалить старый торрент у себя из клиента (старые серии удалять не надо),
(3) скачать новый торрент и запустить его у себя в клиенте вместо старого, при этом указать клиенту путь в старую папку куда и должно происходить скачивание новых выпусков.
Ваш клиент при этом должен произвести хеширование (проверку) старой папки (если не производит сам - помогите ему сделать это). В результате он будет докачивать только те выпуски, которых у Вас ещё нет. Старые выпуски при этом не удаляются, а продолжают раздаваться!
Eсли Вы уже удалили старые выпуски, то предотвратить их повторную закачку можно, сняв галочки в соответствующих местах при запуске нового торрента. По возможности, желательно не удалять старые выпуски как можно дольше, чтобы релизёр не только продолжал раздавать старые выпуски, но и смог сконцентрироваться на новых.


Показать сообщения:    

Текущее время: 13-Дек 13:22

Часовой пояс: UTC ± 0


Вы не можете начинать темы
Вы не можете отвечать на сообщения
Вы не можете редактировать свои сообщения
Вы не можете удалять свои сообщения
Вы не можете голосовать в опросах
Вы не можете прикреплять файлы к сообщениям
Вы не можете скачивать файлы

!ВНИМАНИЕ!
Сайт не предоставляет электронные версии произведений, а занимается лишь коллекционированием и каталогизацией ссылок, присылаемых и публикуемых на форуме нашими читателями. Если вы являетесь правообладателем какого-либо представленного материала и не желаете, чтобы ссылка на него находилась в нашем каталоге, свяжитесь с нами, и мы незамедлительно удалим ее. Файлы для обмена на трекере предоставлены пользователями сайта, и администрация не несет ответственности за их содержание. Просьба не заливать файлы, защищенные авторскими правами, а также файлы нелегального содержания!