Важное объявление!
У Нас Все раздачи мультитрекерные, при нуле пиров в релизах, можете смело вставать на закачку!
 
Автор Сообщение

HUNTER

Стаж:
4 года 10 месяцев
Сообщений:
65576

Репутация: 101

[+] [-]
Вне форума [Профиль] [ЛС]

Институт Реинкарнационики [Тренинг]
Страна: Россия
Тип раздаваемого материала: Видеоурок
Продолжительность: 03:39:29
Год выпуска: 2014
Язык: Русский
Перевод: Не требуется
Описание: Институт Реинкарнационики доказал: 9 женщин из 10 могут в течении 1 часа вспомнить свои прошлые воплощения.
Если вы читали книги Майкла Ньютона «Путешествие Души» и «Предназначение Души», то вы понимаете, какое увлекательное путешествие вас ожидает.
Тренинг «Твое первое путешествие в прошлые жизни» руководителя Института Реинкарнационики Мариса Дрешманиса поможет вам приобрести свой первый реинкарнационный опыт.
Во время этого тренига вы протестируете свои каналы восприятия информации, потреннируетесь на знакомых вам воспоминаниях из вашего детства, вспомните события, которые, как вам казалось, вы давно забыли или никогда не помнили, потом вспомните момент своего рождения, потом до-родовой период в теле мамы, и после этого отправитесь в свое первое путешествие в прошлые жизни.
Тренинг выкладывается с согласия правообладателя.
Желаем успехов в познании себя!
Команда института Реинкарнационики.

Отчёт MediaInfo

Общее
Полное имя : C:\Users\Александр\Desktop\MemoryActivation.mp4
Формат : MPEG-4
Профиль формата : Base Media / Version 2
Идентификатор кодека : mp42
Размер файла : 1,73 Гбайт
Продолжительность : 3 ч. 39 м.
Режим общего битрейта : Переменный
Общий поток : 1130 Кбит/сек
Дата кодирования : UTC 2014-06-07 23:50:22
Дата пометки : UTC 2014-06-07 23:50:22
gsst : 0
gstd : 13169823
gssd : BC30DE787MH1402334514336882
gshh : r4---sn-a5uuxaxjvh-gpms.googlevideo.com
Видео
Идентификатор : 1
Формат : AVC
Формат/Информация : Advanced Video Codec
Профиль формата : High@L3.1
Параметр CABAC формата : Да
Параметр ReFrames формата : 1 кадр
Параметр GOP формата : M=1, N=60
Идентификатор кодека : avc1
Идентификатор кодека/Информация : Advanced Video Coding
Продолжительность : 3 ч. 39 м.
Битрейт : 935 Кбит/сек
Максимальный битрейт : 4078 Кбит/сек
Ширина : 1280 пикселей
Высота : 720 пикселей
Соотношение сторон : 16:9
Режим частоты кадров : Постоянный
Частота кадров : 30,000 кадров/сек
Цветовое пространство : YUV
Субдискретизация насыщенности : 4:2:0
Битовая глубина : 8 бит
Тип развёртки : Прогрессивная
Бит/(Пиксели*Кадры) : 0.034
Размер потока : 1,43 Гбайт (83%)
Дата пометки : UTC 2014-06-08 00:02:02
Аудио
Идентификатор : 2
Формат : AAC
Формат/Информация : Advanced Audio Codec
Профиль формата : LC
Идентификатор кодека : 40
Продолжительность : 3 ч. 39 м.
Вид битрейта : Переменный
Битрейт : 192 Кбит/сек
Максимальный битрейт : 201 Кбит/сек
Каналы : 2 канала
Расположение каналов : Front: L R
Частота : 44,1 КГц
Метод сжатия : С потерями
Размер потока : 301 Мбайт (17%)
Заголовок : IsoMedia File Produced by Google, 5-11-2011
Дата кодирования : UTC 2014-06-07 23:56:57
Дата пометки : UTC 2014-06-08 00:02:02
Формат: MP4
Видео кодек: VC-1
Аудио кодек: AAC
Видео: avc1, 1280x720, 16:9, 935 Кбит/сек, 30 кадров/сек
Аудио: 40, 192 Кбит/сек, 44,1 КГц, 2 канала

Скриншоты


_________________
Показать сообщения:    

Текущее время: Сегодня 06:43

Часовой пояс: GMT



Вы не можете начинать темы
Вы не можете отвечать на сообщения
Вы не можете редактировать свои сообщения
Вы не можете удалять свои сообщения
Вы не можете голосовать в опросах
Вы не можете прикреплять файлы к сообщениям
Вы не можете скачивать файлы