Важное объявление!
У Нас Все раздачи мультитрекерные, при нуле пиров в релизах, можете смело вставать на закачку!
 
Автор Сообщение

HUNTER

Стаж:
4 года 6 месяцев
Сообщений:
60950

Репутация: 101

[+] [-]
Вне форума [Профиль] [ЛС]

Инспектор Гаджет: Большая удача / Самое большое дело инспектора Гаджета
Inspector Gadget's Biggest Caper Ever
Страна: США
Жанр: Мультфильм, комедия, приключения
Продолжительность: 01:09:23
Год выпуска: 2005
Перевод: Профессиональный (многоголосый закадровый)
Русские субтитры: нет
Режиссёр: Изекиль Нортон / Ezekiel Norton
Описание: Невероятные приключения самого удивительного полицейского в мире! Инспектор Гаджет это самый необычный супергерой — в его тело встроено множество технических приспособлений на все случаи жизни. Совершенная машина по борьбе с преступностью настигнет любого злодея, где бы он ни спрятался и как бы быстро ни убегал… Но на сей раз инспектора Гаджета ждет очень опасный противник — Доктор Кло. Он похищает бесценные яйца доисторических летающих ящериц, чтобы вырастить из них ужасных рептилий. Инспектор Гаджет, во что бы то не стало, должен успеть остановить злодея, иначе гигантские ящеры разрушат город.- | Совместный релиз: и -Формат: DVDRip | (Sample)
Качество: AVI
Видео: 704x528 (1.33:1), 25 fps, XviD ~2392 kbps, 0.26 bit/pixel
Аудио 1: 48.0 KHz, AC3, 2 ch, 192 Kbps, Русский
Аудио 2: 48.0 KHz, AC3, 2 ch, 192 Kbps, English
Субтитры: отсутствуют

MediaInfo

GeneralComplete name : Inspector Gadget's Biggest Caper Ever 2005_1.35_Olu6ka.aviFormat : AVIFormat/Info : Audio Video InterleaveFile size : 1.35 GiBDuration : 1h 9mnOverall bit rate : 2 790 KbpsWriting application : VirtualDubModRus 1.5.10.2 (build 2542/release)Writing library : VirtualDubMod build 2542/release
VideoID : 0Format : MPEG-4 VisualFormat profile : Advanced Simple@L5Format settings, BVOP : 1Format settings, QPel : NoFormat settings, GMC : No warppointsFormat settings, Matrix : CustomCodec ID : XVIDCodec ID/Hint : XviDDuration : 1h 9mnBit rate : 2 392 KbpsWidth : 704 pixelsHeight : 528 pixelsDisplay aspect ratio : 4:3Frame rate : 25.000 fpsColor space : YUVChroma subsampling : 4:2:0Bit depth : 8 bitsScan type : ProgressiveCompression mode : LossyBits/(Pixel*Frame) : 0.257Stream size : 1.16 GiB (86%)Writing library : XviD 73
Audio #1ID : 1Format : AC-3Format/Info : Audio Coding 3Mode extension : CM (complete main)Format settings, Endianness : BigCodec ID : 2000Duration : 1h 9mnBit rate mode : ConstantBit rate : 192 KbpsChannel count : 2 channelsChannel positions : Front: L RSampling rate : 48.0 KHzBit depth : 16 bitsCompression mode : LossyStream size : 95.3 MiB (7%)Alignment : Split accross interleavesInterleave, duration : 40 ms (1.00 video frame)Interleave, preload duration : 500 ms
Audio #2ID : 2Format : AC-3Format/Info : Audio Coding 3Mode extension : CM (complete main)Format settings, Endianness : BigCodec ID : 2000Duration : 1h 9mnBit rate mode : ConstantBit rate : 192 KbpsChannel count : 2 channelsChannel positions : Front: L RSampling rate : 48.0 KHzBit depth : 16 bitsCompression mode : LossyStream size : 95.3 MiB (7%)Alignment : Aligned on interleavesInterleave, duration : 40 ms (1.00 video frame)Interleave, preload duration : 512 ms
Спасибо grandmajor за DVD5!

_________________
Показать сообщения:    

Текущее время: Сегодня 09:10

Часовой пояс: GMT



Вы не можете начинать темы
Вы не можете отвечать на сообщения
Вы не можете редактировать свои сообщения
Вы не можете удалять свои сообщения
Вы не можете голосовать в опросах
Вы не можете прикреплять файлы к сообщениям
Вы не можете скачивать файлы
Наши партнеры: интернет магазин Ивановского трикотажа textilla.ru