Ивановский Торрент трекер
Яндекс.Погода
 

[Цитировать]
HUNTER

Инспектор Гаджет: Большая удача / Самое большое дело инспектора Гаджета
Inspector Gadget's Biggest Caper Ever
Страна: США
Жанр: Мультфильм, комедия, приключения
Продолжительность: 01:09:23
Год выпуска: 2005
Перевод: Профессиональный (многоголосый закадровый)
Русские субтитры: нет
Режиссёр: Изекиль Нортон / Ezekiel Norton
Описание: Невероятные приключения самого удивительного полицейского в мире! Инспектор Гаджет это самый необычный супергерой — в его тело встроено множество технических приспособлений на все случаи жизни. Совершенная машина по борьбе с преступностью настигнет любого злодея, где бы он ни спрятался и как бы быстро ни убегал… Но на сей раз инспектора Гаджета ждет очень опасный противник — Доктор Кло. Он похищает бесценные яйца доисторических летающих ящериц, чтобы вырастить из них ужасных рептилий. Инспектор Гаджет, во что бы то не стало, должен успеть остановить злодея, иначе гигантские ящеры разрушат город.- | Совместный релиз: и -Формат: DVDRip | (Sample)
Качество: AVI
Видео: 640x480 (1.33:1), 25 fps, XviD ~1362 kbps, 0.18 bit/pixel
Аудио: 48.0 KHz, MP3, 2 ch, 128 Kbps, Русский
Субтитры: отсутствуют

MediaInfo

GeneralComplete name : Inspector Gadget's Biggest Caper Ever_2005_745_Olu6ka.aviFormat : AVIFormat/Info : Audio Video InterleaveFile size : 744 MiBDuration : 1h 9mnOverall bit rate : 1 500 KbpsWriting application : VirtualDubModRus 1.5.10.2 (build 2542/release)Writing library : VirtualDubMod build 2542/release
VideoID : 0Format : MPEG-4 VisualFormat profile : Advanced Simple@L5Format settings, BVOP : 1Format settings, QPel : NoFormat settings, GMC : No warppointsFormat settings, Matrix : CustomCodec ID : XVIDCodec ID/Hint : XviDDuration : 1h 9mnBit rate : 1 362 KbpsWidth : 640 pixelsHeight : 480 pixelsDisplay aspect ratio : 4:3Frame rate : 25.000 fpsColor space : YUVChroma subsampling : 4:2:0Bit depth : 8 bitsScan type : ProgressiveCompression mode : LossyBits/(Pixel*Frame) : 0.177Stream size : 676 MiB (91%)Writing library : XviD 73
AudioID : 1Format : MPEG AudioFormat version : Version 1Format profile : Layer 3Mode : Joint stereoMode extension : MS StereoCodec ID : 55Codec ID/Hint : MP3Duration : 1h 9mnBit rate mode : ConstantBit rate : 128 KbpsChannel count : 2 channelsSampling rate : 48.0 KHzCompression mode : LossyStream size : 63.5 MiB (9%)Alignment : Split accross interleavesInterleave, duration : 40 ms (1.00 video frame)Interleave, preload duration : 500 ms
Спасибо grandmajor за DVD5!


Показать сообщения:    

Текущее время: 12-Дек 20:15

Часовой пояс: UTC ± 0


Вы не можете начинать темы
Вы не можете отвечать на сообщения
Вы не можете редактировать свои сообщения
Вы не можете удалять свои сообщения
Вы не можете голосовать в опросах
Вы не можете прикреплять файлы к сообщениям
Вы не можете скачивать файлы

!ВНИМАНИЕ!
Сайт не предоставляет электронные версии произведений, а занимается лишь коллекционированием и каталогизацией ссылок, присылаемых и публикуемых на форуме нашими читателями. Если вы являетесь правообладателем какого-либо представленного материала и не желаете, чтобы ссылка на него находилась в нашем каталоге, свяжитесь с нами, и мы незамедлительно удалим ее. Файлы для обмена на трекере предоставлены пользователями сайта, и администрация не несет ответственности за их содержание. Просьба не заливать файлы, защищенные авторскими правами, а также файлы нелегального содержания!