Важное объявление!
У Нас Все раздачи мультитрекерные, при нуле пиров в релизах, можете смело вставать на закачку!
Статистика раздачи
Размер:     |    Зарегистрирован:     |    Скачан:     |   
Нет
 
     
 
 
Автор Сообщение

HUNTER

Стаж:
5 лет
Сообщений:
67992

Репутация: 101

[+] [-]
Вне форума [Профиль] [ЛС]

Иностранная интрига / Foreign Intrigue
Страна: США
Студия: United Artists
Жанр: триллер, шпионский
Год выпуска: 1956
Продолжительность: 01:34:51
Перевод: Профессиональный (двухголосый закадровый) НТВ+ / Александр Селезнев
Cубтитры: нет
Оригинальная аудиодорожка: нет
Режиссер: Шелдон Рейнольдс / Sheldon Reynolds
В ролях: Роберт Митчум /Robert Mitchum/, Женевьев Паж /Genevieve Page/, Ингрид Тулин /Ingrid Thulin/, Фредерик О’Брэди /Frederic O'Brady/, Юджин Декерс /Eugene Deckers/
Описание: Миллионер Виктор Данемор, живущий на Французской Ривьере, неожиданно умирает от сердечного приступа. Его секретарь Дэйв Бишоп решает побольше узнает о своем бывшем работодателе. Оказывается, что даже его молодая жена не знает ничего о прошлом своего мужа и о том, как он заработал состояние. Следы ведут Бишопа в Вену и Стокгольм, где он узнает о том, что Данемор шантажировал людей, которые работали на нацистов во время Второй мировой войны.
Доп. информация: Текст читают: Елена Борзунова и Павел Кипнис
Сэмпл: http://multi-up.com/1006033
Тип релиза: HDTV 1080i
Контейнер: TS
Видео: AVC, 1920х1080, 16:9, 5504 Кбит/сек, 25 fps
Аудио: MPEG Audio, 192 Кбит/сек, 48 КГц, 2 канала

MediaInfo

Общее
Идентификатор : 16 (0x10)
Полное имя : Foreign Intrigue_HD.ts
Формат : MPEG-TS
Размер файла : 3,97 Гбайт
Продолжительность : 1 ч. 34 м.
Режим общего битрейта : Переменный
Общий поток : 5994 Кбит/сек
Видео
Идентификатор : 1606 (0x646)
Идентификатор меню : 606 (0x25E)
Формат : AVC
Формат/Информация : Advanced Video Codec
Профиль формата : High@L4.0
Параметр CABAC формата : Да
Параметр ReFrames формата : 3 кадра
Параметр GOP формата : M=4, N=32
Идентификатор кодека : 27
Продолжительность : 1 ч. 34 м.
Битрейт : 5504 Кбит/сек
Ширина : 1920 пикселей
Высота : 1080 пикселей
Соотношение сторон : 16:9
Частота кадров : 25,000 кадров/сек
Стандарт вещания : PAL
Цветовое пространство : YUV
Субдискретизация насыщенности : 4:2:0
Битовая глубина : 8 бит
Тип развёртки : Чересстрочная
Порядок развёртки : Верхнее поле первое
Бит/(Пиксели*Кадры) : 0.106
Размер потока : 3,65 Гбайт (92%)
Основные цвета : BT.709
Характеристики трансфера : BT.709
Коэффициенты матрицы : BT.709
Аудио
Идентификатор : 2606 (0xA2E)
Идентификатор меню : 606 (0x25E)
Формат : MPEG Audio
Версия формата : Version 1
Профиль формата : Layer 2
Идентификатор кодека : 4
Продолжительность : 1 ч. 34 м.
Вид битрейта : Постоянный
Битрейт : 192 Кбит/сек
Каналы : 2 канала
Частота : 48,0 КГц
Метод сжатия : С потерями
Задержка видео : 50 мс.
Размер потока : 130 Мбайт (3%)
Язык : std
Язык, дополнительно : Clean effects

Скриншоты


_________________
Показать сообщения:    

Текущее время: Сегодня 12:41

Часовой пояс: GMT



Вы не можете начинать темы
Вы не можете отвечать на сообщения
Вы не можете редактировать свои сообщения
Вы не можете удалять свои сообщения
Вы не можете голосовать в опросах
Вы не можете прикреплять файлы к сообщениям
Вы не можете скачивать файлы