Важное объявление!
У Нас Все раздачи мультитрекерные, при нуле пиров в релизах, можете смело вставать на закачку!
 
Автор Сообщение

HUNTER

Стаж:
4 года 8 месяцев
Сообщений:
62091

Репутация: 101

[+] [-]
Вне форума [Профиль] [ЛС]

Инженерия невозможного / Impossible Engineering / 2 сезон-

Год выпуска: 2015
Страна: Великобритания
Жанр: Документальный
Канал:
Продолжительность:: 8 x ~44 минуты
Перевод: Профессиональный (одноголосый, Илья Сланевский, студия Кириллица)
Производство:: Twofour Broadcast, Yesterday
Описание: Программа "Инженерия невозможного" во втором сезоне продолжает рассказ об удивительных инженерных сооружениях, гигантских небоскребах, мощных судах и космических кораблях, опережающих время. За каждым из них стоит удивительная история, и она начинается вовсе не с чертежей или закладки первого камня – совершив экскурс в прошлое, вы узнаете, кто стоял у истоков самых знаковых достижений науки и техники. Программа переносит зрителей и в будущее, показывая, как инженерные достижения изменят мир к лучшему. Вы побываете на околоземной орбите и узнаете историю космического корабля «Орион». Вы увидите, как инженеры развернули реку вспять, чтобы создать плотину электростанции «Три ущелья» – одно из самых крупных гидротехнических сооружений на Земле, как «передвинули» горы, чтобы построить самый длинный и глубокий железнодорожный тоннель планеты. С помощью компьютерной графики вам откроется процесс творения в деталях, а интервью с создателями этих объектов прольют свет на то, как невозможное становится возможным.
Список эпизодов:
01 Ракета на Марс / NASA's Rocket to Mars 16.03.2016
02 Самый высокий мост в мире / World's Tallest Bridge 23.03.2016
03 Лучший футбольный стадион / Ultimate Football Stadium 30.03.2016
04 Самая крепкая дамба в мире / World's Most Powerful Dam 06.04.2016
05 Самый длинный тоннель в мире / World's Longest Tunnel 13.04.2016
06 Самый большой круизный лайнер / World's Biggest Cruise Ship 20.04.2016
07 Суперсубмарина ВМС США / US Navy's Super Submarine 27.04.2016
08 Ультра современный небоскрёб / The Glass Skyscraper 04.05.2016

Тип релиза: [url=viewtopic.php?t=5284580]HDTV[/url]Rip [Neon_project]
Контейнер: AVI
Видео: 720x400 (1.80:1), 25 fps, XviD build 50 ~1800 kbps avg, 0.25 bit/pixel
Аудио: 48 kHz, AC3 Dolby Digital, 3/2 (L,C,R,l,r) + LFE ch, ~384 kbps
MediaInfo
ОбщееПолное имя : \Инженерия невозможного (Impossible Engineering) 2 сезон\04 Самая крепкая дамба в мире (World's Most Powerful Dam).aviФормат : AVIФормат/Информация : Audio Video InterleaveРазмер файла : 693 МбайтПродолжительность : 44 м.Общий поток : 2194 Кбит/секНазвание фильма : Самая крепкая дамба в мире / World's Most Powerful DamЖанр : DocumentaryПрограмма кодирования : VirtualDubMod 1.5.10.3 | www.virtualdub-fr.org || (build 2550/release)Примечание : Neon_project
ВидеоИдентификатор : 0Формат : MPEG-4 VisualПрофиль формата : Advanced Simple@L5Параметр BVOP формата : 1Параметр QPel формата : НетПараметр GMC формата : Без точки переходаПараметр матрицы формата : ВыборочнаяИдентификатор кодека : XVIDИдентификатор кодека/Подсказка : XviDПродолжительность : 44 м.Битрейт : 1800 Кбит/секШирина : 720 пикселейВысота : 400 пикселейСоотношение сторон : 16:9Частота кадров : 25,000 кадров/секЦветовое пространство : YUVСубдискретизация насыщенности : 4:2:0Битовая глубина : 8 битТип развёртки : ПрогрессивнаяМетод сжатия : С потерямиБит/(Пиксели*Кадры) : 0.250Размер потока : 568 Мбайт (82%)Библиотека кодирования : XviD 1.2.1 (UTC 2008-12-04)
АудиоИдентификатор : 1Формат : AC-3Формат/Информация : Audio Coding 3Расширение режима : CM (complete main)Параметр Endianness формата : BigИдентификатор кодека : 2000Продолжительность : 44 м.Вид битрейта : ПостоянныйБитрейт : 384 Кбит/секКаналы : 6 каналовРасположение каналов : Front: L C R, Side: L R, LFEЧастота : 48,0 КГцБитовая глубина : 16 битМетод сжатия : С потерямиРазмер потока : 121 Мбайт (17%)Выравнивание : Разделение по промежуткамПродолжительность промежутка : 40 мс. (1,00 видеокадр)Время предзагрузки промежутка : 500 мс.[url=tracker.php?nm=%D0%98%D0%BD%D0%B6%D0%B5%D0%BD%D0%B5%D1%80%D0%B8%D1%8F%20%D0%BD%D0%B5%D0%B2%D0%BE%D0%B7%D0%BC%D0%BE%D0%B6%D0%BD%D0%BE%D0%B3%D0%BE] [/url]

_________________
Показать сообщения:    

Текущее время: Сегодня 12:06

Часовой пояс: GMT



Вы не можете начинать темы
Вы не можете отвечать на сообщения
Вы не можете редактировать свои сообщения
Вы не можете удалять свои сообщения
Вы не можете голосовать в опросах
Вы не можете прикреплять файлы к сообщениям
Вы не можете скачивать файлы
Наши партнеры: интернет магазин Ивановского трикотажа textilla.ru