Индюки: Назад в будущее / Free Birds (Джимми Хейуорд / Jimmy Hayward) [2013, мультфильм, комедия, приключения, семейный, BDRip] Dub (Лицензия) :: Ивановский Торрент трекер
Важное объявление!
У Нас Все раздачи мультитрекерные, при нуле пиров в релизах, можете смело вставать на закачку!
Статистика раздачи
Размер:     |    Зарегистрирован:     |    Скачан:     |   
Нет
 
     
 
 
Автор Сообщение

HUNTER

Стаж:
4 года 11 месяцев
Сообщений:
66116

Репутация: 101

[+] [-]
Вне форума [Профиль] [ЛС]

Индюки: Назад в будущее / Free Birds-
Год выпуска: 2013
Выпущено: США
Жанр: мультфильм, комедия, приключения, семейный
Продолжительность: 01:31:03
Перевод: Профессиональный (полное дублирование)
Субтитры: нет-Режиссер: Джимми Хейуорд / Jimmy Hayward
В ролях: Оуэн Уилсон, Вуди Харрельсон, Эми Полер, Джордж Такей, Колм Мини, Кит Дэвид, Дэн Фоглер, Джимми Хейуорд, Кейтлин Мехер, Карлос Аласраки
О фильме: Индюк Реджи вырос на обычной ферме, его жизнь была скучной и однообразной, как и у других птиц. Однако он отличался от сородичей тем, что умел пользоваться смекалкой и понимал, зачем его кормят. Поедание индейки на День Благодарения — знаменитая американская традиция, которая определяет смысл существования всех индюков на этой ферме. Однажды у Реджи появилась возможность кардинально изменить ситуацию: вместе с безумным приятелем Джейком они отправляются в необычное путешествие на машине времени. Основная задача — вернуться во времена, когда зарождалась традиция приготовления индейки на праздник, и изменить ход истории.
Релиз:
Автор: yaroslaigor
Качество: BDRip (источник: HANSMER / Blu-Ray Remux [USA Transfer] / 1080р)
Формат: AVI
Видео: 704x384 (1.83:1), 23.976 fps, XviD build 65 ~1828 kbps avg, 0.28 bit/pixel
Аудио #1: 48 kHz, AC3 Dolby Digital, 3/2 (L,C,R,l,r) + LFE ch, ~448.00 kbps avg
Размер: 1488.51 Mb (1/3 DVD-R)
Скачать: Сэмпл-

Кадры из фильма


-

Mi

Формат : AVI
Формат/Информация : Audio Video Interleave
Размер файла : 1,45 Гбайт
Продолжительность : 1 ч. 31 м.
Общий поток : 2285 Кбит/сек
Название фильма : Индюки: Назад в будущее / Free Birds (2013) BDRip
Режиссёр : yaroslaigor
Жанр : мультфильм, комедия
Программа кодирования : VirtualDubMod 1.5.10.2 (build 2542/release)
Правообладатель : http://hqclub.net/
Примечание : 02.02.2014
Видео
Идентификатор : 0
Формат : MPEG-4 Visual
Профиль формата : Advanced Simple@L5
Параметр BVOP формата : 1
Параметр QPel формата : Нет
Параметр GMC формата : Без точки перехода
Параметр матрицы формата : Выборочная
Идентификатор кодека : XVID
Идентификатор кодека/Подсказка : XviD
Продолжительность : 1 ч. 31 м.
Битрейт : 1828 Кбит/сек
Ширина : 704 пикселя
Высота : 384 пикселя
Соотношение сторон : 1,85:1
Частота кадров : 23,976 кадра/сек
Цветовое пространство : YUV
Субдискретизация насыщенности : 4:2:0
Битовая глубина : 8 бит
Тип развёртки : Прогрессивная
Метод сжатия : С потерями
Бит/(Пиксели*Кадры) : 0.282
Размер потока : 1,16 Гбайт (80%)
Библиотека кодирования : XviD 65
Аудио
Идентификатор : 1
Формат : AC-3
Формат/Информация : Audio Coding 3
Расширение режима : CM (complete main)
Параметр Endianness формата : Big
Идентификатор кодека : 2000
Продолжительность : 1 ч. 31 м.
Вид битрейта : Постоянный
Битрейт : 448 Кбит/сек
Каналы : 6 каналов
Расположение каналов : Front: L C R, Side: L R, LFE
Частота : 48,0 КГц
Битовая глубина : 16 бит
Метод сжатия : С потерями
Размер потока : 292 Мбайт (20%)
Выравнивание : Разделение по промежуткам
Продолжительность промежутка : 42 мс. (1,00 видеокадр)
Время предзагрузки промежутка : 500 мс.
-

_________________
Показать сообщения:    

Текущее время: Сегодня 09:10

Часовой пояс: GMT



Вы не можете начинать темы
Вы не можете отвечать на сообщения
Вы не можете редактировать свои сообщения
Вы не можете удалять свои сообщения
Вы не можете голосовать в опросах
Вы не можете прикреплять файлы к сообщениям
Вы не можете скачивать файлы