Важное объявление!
У Нас Все раздачи мультитрекерные, при нуле пиров в релизах, можете смело вставать на закачку!
 
Автор Сообщение

HUNTER

Стаж:
4 года 7 месяцев
Сообщений:
61508

Репутация: 101

[+] [-]
Вне форума [Профиль] [ЛС]

Импорт-экспорт / Import/Export
Информация о фильме
Название: Импорт-экспорт
Оригинальное название: Import/Export
Год выхода: 2007
Жанр: Драма
Режиссер: Ульрих Зайдль
В ролях: Екатерина Рак, Пауль Хофманн, Майкл Томас, Мария Хофштаттер, Георг Фридрих, Наталья Баранова, Наталья Епуряну, Эрих Финшес, Герберт Фритш, Сюзанна Лотар
О фильме:
Две отдельные судьбы. Два разных вектора. Ольга, медсестра с Украины, бросает свою семью, чтобы искать лучшую жизнь на Западе и в итоге работает уборщицей в доме престарелых в Австрии. Пауль, безработный охранник из Вены, ищет причину вставать по утрам, отправляется вместе с отчимом на Восток и в итоге оказывается на Украине. Двое молодых людей, жаждущие начать новую жизнь, столкнулись с суровой реальностью. Две истории о поисках счастья и материальной выгоды, о темных сторонах сексуальности и смерти.
Награды: Каннский кинофестиваль, 2007 год - Золотая пальмовая ветвь

Файл
Качество: DVDRip
Видео: XviD,720x384(1.875), 23.976 fps ~ 1620 Kbps
Аудио: AC3, 48 KHz 6 ch ~ 448 Kb/s
Продолжительность: 02:21:25
Перевод: Профессиональный (многоголосный)
Субтитры: немецкие неотключаемые на русскую речь
Внимание!: присутствует ненормативная лексика
Возраст 18+

MI:

Общее
Полное имя : Q:TorFImport_export.2007.DVDRip.avi
Формат : AVI
Формат/Информация : Audio Video Interleave
Профиль формата : OpenDML
Размер файла : 2,06 Гбайт
Продолжительность : 2 ч. 21 м.
Общий поток : 2082 Кбит/сек
Программа кодирования : VirtualDubMod 1.5.10.2 (build 2540/release)
Библиотека кодирования : VirtualDub build 32507/release
Правообладатель : WIDDER
Видео
Идентификатор : 0
Формат : MPEG-4 Visual
Профиль формата : Advanced Simple@L5
Параметр BVOP формата : 3
Параметр QPel формата : Да
Параметр GMC формата : 3 точки перехода
Параметр матрицы формата : Default (MPEG)
Идентификатор кодека : XVID
Идентификатор кодека/Подсказка : XviD
Продолжительность : 2 ч. 21 м.
Битрейт : 1622 Кбит/сек
Ширина : 720 пикселей
Высота : 384 пикселя
Соотношение сторон : 1,875
Частота кадров : 23,976 кадра/сек
Цветовое пространство : YUV
Субдискретизация насыщенности : 4:2:0
Битовая глубина : 8 бит
Тип развёртки : Прогрессивная
Метод сжатия : С потерями
Бит/(Пиксели*Кадры) : 0.245
Размер потока : 1,60 Гбайт (78%)
Библиотека кодирования : XviD 1.2.1 (UTC 2008-12-04)
Аудио
Идентификатор : 1
Формат : AC-3
Формат/Информация : Audio Coding 3
Расширение режима : CM (complete main)
Идентификатор кодека : 2000
Продолжительность : 2 ч. 21 м.
Вид битрейта : Постоянный
Битрейт : 448 Кбит/сек
Каналы : 6 каналов
Расположение каналов : Front: L C R, Side: L R, LFE
Частота : 48,0 КГц
Битовая глубина : 16 бит
Метод сжатия : С потерями
Размер потока : 453 Мбайт (22%)
Выравнивание : Соединение по промежуткам
Продолжительность промежутка : 42 мс. (1,00 видеокадр)
Время предзагрузки промежутка : 512 мс.

Скриншоты







_________________
Показать сообщения:    

Текущее время: Сегодня 07:50

Часовой пояс: GMT



Вы не можете начинать темы
Вы не можете отвечать на сообщения
Вы не можете редактировать свои сообщения
Вы не можете удалять свои сообщения
Вы не можете голосовать в опросах
Вы не можете прикреплять файлы к сообщениям
Вы не можете скачивать файлы
Наши партнеры: интернет магазин Ивановского трикотажа textilla.ru