Важное объявление!
У Нас Все раздачи мультитрекерные, при нуле пиров в релизах, можете смело вставать на закачку!
Статистика раздачи
Размер:     |    Зарегистрирован:     |    Скачан:     |   
Нет
 
     
 
 
Автор Сообщение

HUNTER

Стаж:
5 лет
Сообщений:
68053

Репутация: 101

[+] [-]
Вне форума [Профиль] [ЛС]

Илья Муромец и Соловей-Разбойник
Страна: Россия
Жанр: Приключения
Продолжительность: 01:16:13
Год выпуска: 2007
Перевод: Не требуется
Русские субтитры: нет
Режиссёр: Владимир Торопчин
Роли озвучивали: Екатерина Гороховская, Сергей Маковецкий, Анатолий Петров, Валерий Соловьёв, Олег Табаков
Описание: Славится земля русская богатырями богатырскими да разбойниками разбойничьими... А сверху всего князь княжеский сидит, за всем следит и порядок наводит, если нужно. Да только не всегда выходит у князя так, как нужно правильно. Вот и сейчас - с богатырем поругался, да от Соловья Разбойника урон потерпел немалый: увел бандит окаянный казну государственную прямо из-под носа! Что делать князю? А ничего особенного - на то он и князь, чтоб из любой ситуации выход найти! Вот и отправились князь с Ильей на поиски похищенного...
Семпл: http://www.sendspace.com/file/o5bgu8
Качество: DVD5
Формат: DVD-video
Видео: MPEG Video; 4152 Кбит/сек; 720х576 (16:9); 25,000 кадров/сек; PAL
Аудио: AC-3; 448 Кбит/сек; 6 каналов; 48,0 КГц; русский
Аудио 2: AC-3; 192 Кбит/сек; 2 каналов; 48,0 КГц; русский
Субтитры: Отсутствуют
DVDInfo
Title: video_tsSize: 3.18 Gb ( 3 339 002,00 KBytes ) - DVD-5Enabled regions: 1, 2, 3, 4, 5, 6, 7, 8
VTS_01 : Play Length: 00:00:13 Video: PAL 4:3 (720x576) VBR Audio: Russian (Dolby AC3, 6 ch) Russian (Dolby AC3, 6 ch)
VTS_02 : Play Length: 00:01:43 Video: PAL 4:3 (720x576) VBR Audio: Russian (MPEG1, 2 ch) Russian (MPEG1, 2 ch)
VTS_03 : Play Length: 00:02:34 Video: PAL 4:3 (720x576) VBR Audio: Russian (Dolby AC3, 2 ch) Russian (Dolby AC3, 2 ch)
VTS_04 : Play Length: 01:16:13 Video: PAL 16:9 (720x576) VBR, Auto Letterboxed Audio: Russian, AC3, 3/2 (L,C,R,SL,SR)+LFE ch, 448 kbps, Delay 0 mSec Russian, AC3, 2/0 (L,R) ch, 192 kbps, Delay 0 mSec
VTS_05 : Play Length: 00:01:17 Video: PAL 16:9 (720x576) VBR, Auto Letterboxed Audio: Russian (Dolby AC3, 2 ch) Russian (Dolby AC3, 2 ch)
VTS_06 : Play Length: 00:02:31 Video: PAL 16:9 (720x576) VBR, Auto Letterboxed Audio: Russian (Dolby AC3, 2 ch) Russian (Dolby AC3, 2 ch)
VTS_07 : Play Length: 00:01:06 Video: PAL 4:3 (720x576) VBR Audio: Russian (Dolby AC3, 2 ch) Russian (Dolby AC3, 2 ch)
VTS_08 : Play Length: 00:03:31 Video: PAL 4:3 (720x576) VBR Audio: Russian (Dolby AC3, 2 ch) Russian (Dolby AC3, 2 ch)
VTS_09 : Play Length: 00:02:20 Video: PAL 16:9 (720x576) VBR, Auto Letterboxed Audio: Russian (Dolby AC3, 2 ch) Russian (Dolby AC3, 2 ch)
Скриншоты менюСкриншотыmi
Битрейт : 448 Кбит/сек
Каналы : 6 каналов
Расположение каналов : Front: L C R, Side: L R, LFE
Частота : 48,0 КГц
Битовая глубина : 16 бит
Метод сжатия : С потерями
Задержка видео : -536 мс.
Размер потока : 93,8 Мбайт (9%)
Аудио #2
Идентификатор : 189 (0xBD)-129 (0x81)
Формат : AC-3
Формат/Информация : Audio Coding 3
Профиль формата : Dolby Digital
Расширение режима : CM (complete main)
Параметр Endianness формата : Big
Режим смешивания : DVD-Video
Продолжительность : 29 м.
Вид битрейта : Постоянный
Битрейт : 192 Кбит/сек
Каналы : 2 канала
Расположение каналов : Front: L R
Частота : 48,0 КГц
Битовая глубина : 16 бит
Метод сжатия : С потерями
Задержка видео : -472 мс.
Размер потока : 40,2 Мбайт (4%)
Меню

_________________
Показать сообщения:    

Текущее время: Сегодня 10:48

Часовой пояс: GMT



Вы не можете начинать темы
Вы не можете отвечать на сообщения
Вы не можете редактировать свои сообщения
Вы не можете удалять свои сообщения
Вы не можете голосовать в опросах
Вы не можете прикреплять файлы к сообщениям
Вы не можете скачивать файлы