Важное объявление!
У Нас Все раздачи мультитрекерные, при нуле пиров в релизах, можете смело вставать на закачку!
 
Автор Сообщение

HUNTER

Стаж:
4 года 10 месяцев
Сообщений:
65570

Репутация: 101

[+] [-]
Вне форума [Профиль] [ЛС]

Иллюзия убийства / F/X - Murder by Illusion
Страна: США
Жанр: боевик, детектив
Год выпуска: 1986
Продолжительность: 1:48:30
Перевод: Профессиональный (многоголосый закадровый) Позитив-Мультимедиа
Перевод 2: Авторский (одноголосый закадровый) Живов
Перевод 3: Авторский (одноголосый закадровый) Горчаков
Cубтитры: английские, русские
Оригинальная аудиодорожка: английский
Режиссер: Роберт Мэндел / Robert Mandel
В ролях: Брайан Браун, Брайан Деннехи, Дайэн Венора, Клифф Де Янг, Мэйсон Эдамс, Джерри Орбак
Описание: В шоу-бизнесе нет лучшего мастера спецэффектов, чем Ролли Тайлер. Его уникальные способности создавать на экране грандиозные иллюзии приносят ему множество заказов от крупнейших студий Голливуда. На этот раз его заказчиком становится правительство: он должен разыграть убийство важного свидетеля ... Обманутый и преследуемый бывшими работодателями и полицией - Тайлер быстро понимает, что никому не может доверять, и единственное средство сохранить жизнь - его несравненное искусство мистификации.
Доп. информация: Видеодорожка сделана из раздачи BDRemux (1080p), скачанного с кинозала (спасибо Мастер5). Использованы MKVmerge GUI v5.7.0, Rhozet Carbon Coder v3.17 + AVISynth 2.5 + FFMpegSource 2-17.

MediaInfo исходника

Общее
Полное имя : F:\F.X. (1986) [BDRemux] [1080p]
Формат : Blu-ray movie
Продолжительность : 1 ч. 48 м.
Режим общего битрейта : Переменный
Общий поток : 1 бит/сек
Видео
Идентификатор : 4113 (0x1011)
Идентификатор меню : 1 (0x1)
Формат : AVC
Формат/Информация : Advanced Video Codec
Профиль формата : High@L4.1
Параметр CABAC формата : Да
Параметр ReFrames формата : 4 кадра
Идентификатор кодека : 27
Продолжительность : 1 ч. 48 м.
Вид битрейта : Переменный
Максимальный битрейт : 35,0 Мбит/сек
Ширина : 1920 пикселей
Высота : 1080 пикселей
Соотношение сторон : 16:9
Частота кадров : 23,976 кадра/сек
Стандарт вещания : NTSC
Цветовое пространство : YUV
Субдискретизация насыщенности : 4:2:0
Битовая глубина : 8 бит
Основные цвета : BT.709
Характеристики трансфера : BT.709
Коэффициенты матрицы : BT.709
Оригинал : 00000.m2ts
Аудио #1
Идентификатор : 4352 (0x1100)
Идентификатор меню : 1 (0x1)
Формат : AC-3
Формат/Информация : Audio Coding 3
Расширение режима : CM (complete main)
Параметр Endianness формата : Big
Идентификатор кодека : 129
Продолжительность : 1 ч. 48 м.
Вид битрейта : Постоянный
Битрейт : 192 Кбит/сек
Каналы : 2 канала
Расположение каналов : Front: L R
Частота : 48,0 КГц
Битовая глубина : 16 бит
Метод сжатия : С потерями
Размер потока : 149 Мбайт (1%)
Язык : Russian / Russian
dsurmod : 0
dialnorm : -27
dialnorm/String : -27 dB
compr : -0.28
compr/String : -0.28 dB
dynrng : -4.30
dynrng/String : -4.30 dB
bsid : 8
dialnorm_Average : -27
dialnorm_Average/String : -27 dB
dialnorm_Minimum : -27
dialnorm_Minimum/String : -27 dB
dialnorm_Maximum : -27
dialnorm_Maximum/String : -27 dB
dialnorm_Count : 582
compr_Average : -0.03
compr_Average/String : -0.03 dB
compr_Minimum : -9.27
compr_Minimum/String : -9.27 dB
compr_Maximum : 5.16
compr_Maximum/String : 5.16 dB
compr_Count : 582
dynrng_Average : 11.33
dynrng_Average/String : 11.33 dB
dynrng_Minimum : -23.81
dynrng_Minimum/String : -23.81 dB
dynrng_Maximum : 23.52
dynrng_Maximum/String : 23.52 dB
dynrng_Count : 582
Оригинал : 00000.m2ts
Аудио #2
Идентификатор : 4353 (0x1101)
Идентификатор меню : 1 (0x1)
Формат : DTS
Формат/Информация : Digital Theater Systems
Профиль формата : MA / Core
Режим : 16
Параметр Endianness формата : Big
Режим смешивания : Stream extension
Идентификатор кодека : 134
Продолжительность : 1 ч. 48 м.
Вид битрейта : Переменный
Битрейт : Неизвестно / 1509 Кбит/сек
Каналы : 2 канала
Расположение каналов : Front: L R
Частота : 48,0 КГц
Битовая глубина : 16 бит
Метод сжатия : Без потерь / Lossy
Язык : Russian / Russian
Оригинал : 00000.m2ts
Аудио #3
Идентификатор : 4354 (0x1102)
Идентификатор меню : 1 (0x1)
Формат : AC-3
Формат/Информация : Audio Coding 3
Расширение режима : CM (complete main)
Параметр Endianness формата : Big
Идентификатор кодека : 129
Продолжительность : 1 ч. 48 м.
Вид битрейта : Постоянный
Битрейт : 192 Кбит/сек
Каналы : 2 канала
Расположение каналов : Front: L R
Частота : 48,0 КГц
Битовая глубина : 16 бит
Метод сжатия : С потерями
Размер потока : 149 Мбайт (1%)
Язык : Russian / Russian
dsurmod : 0
dialnorm : -27
dialnorm/String : -27 dB
compr : -0.28
compr/String : -0.28 dB
dynrng : -4.30
dynrng/String : -4.30 dB
bsid : 8
dialnorm_Average : -27
dialnorm_Average/String : -27 dB
dialnorm_Minimum : -27
dialnorm_Minimum/String : -27 dB
dialnorm_Maximum : -27
dialnorm_Maximum/String : -27 dB
dialnorm_Count : 582
compr_Average : 1.94
compr_Average/String : 1.94 dB
compr_Minimum : -9.27
compr_Minimum/String : -9.27 dB
compr_Maximum : 5.74
compr_Maximum/String : 5.74 dB
compr_Count : 582
dynrng_Average : 10.51
dynrng_Average/String : 10.51 dB
dynrng_Minimum : -23.55
dynrng_Minimum/String : -23.55 dB
dynrng_Maximum : 23.22
dynrng_Maximum/String : 23.22 dB
dynrng_Count : 582
Оригинал : 00000.m2ts
Аудио #4
Идентификатор : 4355 (0x1103)
Идентификатор меню : 1 (0x1)
Формат : AC-3
Формат/Информация : Audio Coding 3
Расширение режима : CM (complete main)
Параметр Endianness формата : Big
Идентификатор кодека : 129
Продолжительность : 1 ч. 48 м.
Вид битрейта : Постоянный
Битрейт : 192 Кбит/сек
Каналы : 2 канала
Расположение каналов : Front: L R
Частота : 48,0 КГц
Битовая глубина : 16 бит
Метод сжатия : С потерями
Размер потока : 149 Мбайт (1%)
Язык : Russian / Russian
dsurmod : 0
dialnorm : -27
dialnorm/String : -27 dB
compr : -0.28
compr/String : -0.28 dB
dynrng : -4.30
dynrng/String : -4.30 dB
bsid : 8
dialnorm_Average : -27
dialnorm_Average/String : -27 dB
dialnorm_Minimum : -27
dialnorm_Minimum/String : -27 dB
dialnorm_Maximum : -27
dialnorm_Maximum/String : -27 dB
dialnorm_Count : 582
compr_Average : 1.69
compr_Average/String : 1.69 dB
compr_Minimum : -9.27
compr_Minimum/String : -9.27 dB
compr_Maximum : 5.74
compr_Maximum/String : 5.74 dB
compr_Count : 582
dynrng_Average : 12.27
dynrng_Average/String : 12.27 dB
dynrng_Minimum : -22.59
dynrng_Minimum/String : -22.59 dB
dynrng_Maximum : 23.94
dynrng_Maximum/String : 23.94 dB
dynrng_Count : 582
Оригинал : 00000.m2ts
Аудио #5
Идентификатор : 4356 (0x1104)
Идентификатор меню : 1 (0x1)
Формат : DTS
Формат/Информация : Digital Theater Systems
Профиль формата : MA / Core
Режим : 16
Параметр Endianness формата : Big
Режим смешивания : Stream extension
Идентификатор кодека : 134
Продолжительность : 1 ч. 48 м.
Вид битрейта : Переменный
Битрейт : Неизвестно / 1509 Кбит/сек
Каналы : 2 канала
Расположение каналов : Front: L R
Частота : 48,0 КГц
Битовая глубина : 16 бит
Метод сжатия : Без потерь / Lossy
Язык : Russian / Russian
Оригинал : 00000.m2ts
Аудио #6
Идентификатор : 4357 (0x1105)
Идентификатор меню : 1 (0x1)
Формат : DTS
Формат/Информация : Digital Theater Systems
Профиль формата : MA / Core
Режим : 16
Параметр Endianness формата : Big
Режим смешивания : Stream extension
Идентификатор кодека : 134
Продолжительность : 1 ч. 48 м.
Вид битрейта : Переменный
Битрейт : Неизвестно / 1509 Кбит/сек
Каналы : 2 канала
Расположение каналов : Front: L R
Частота : 48,0 КГц
Битовая глубина : 16 бит
Метод сжатия : Без потерь / Lossy
Язык : Russian / Russian
Оригинал : 00000.m2ts
Аудио #7
Идентификатор : 4358 (0x1106)
Идентификатор меню : 1 (0x1)
Формат : AC-3
Формат/Информация : Audio Coding 3
Расширение режима : CM (complete main)
Параметр Endianness формата : Big
Идентификатор кодека : 129
Продолжительность : 1 ч. 48 м.
Вид битрейта : Постоянный
Битрейт : 192 Кбит/сек
Каналы : 2 канала
Расположение каналов : Front: L R
Частота : 48,0 КГц
Битовая глубина : 16 бит
Метод сжатия : С потерями
Размер потока : 149 Мбайт (1%)
Язык : Russian / Russian
dsurmod : 0
dialnorm : -27
dialnorm/String : -27 dB
compr : -0.28
compr/String : -0.28 dB
dynrng : -4.30
dynrng/String : -4.30 dB
bsid : 8
dialnorm_Average : -27
dialnorm_Average/String : -27 dB
dialnorm_Minimum : -27
dialnorm_Minimum/String : -27 dB
dialnorm_Maximum : -27
dialnorm_Maximum/String : -27 dB
dialnorm_Count : 582
compr_Average : 2.59
compr_Average/String : 2.59 dB
compr_Minimum : -9.27
compr_Minimum/String : -9.27 dB
compr_Maximum : 5.74
compr_Maximum/String : 5.74 dB
compr_Count : 582
dynrng_Average : 10.81
dynrng_Average/String : 10.81 dB
dynrng_Minimum : -24.08
dynrng_Minimum/String : -24.08 dB
dynrng_Maximum : 23.94
dynrng_Maximum/String : 23.94 dB
dynrng_Count : 582
Оригинал : 00000.m2ts
Аудио #8
Идентификатор : 4359 (0x1107)
Идентификатор меню : 1 (0x1)
Формат : AC-3
Формат/Информация : Audio Coding 3
Расширение режима : CM (complete main)
Параметр Endianness формата : Big
Идентификатор кодека : 129
Продолжительность : 1 ч. 48 м.
Вид битрейта : Постоянный
Битрейт : 192 Кбит/сек
Каналы : 2 канала
Расположение каналов : Front: L R
Частота : 48,0 КГц
Битовая глубина : 16 бит
Метод сжатия : С потерями
Размер потока : 149 Мбайт (1%)
Язык : Russian / Russian
dsurmod : 0
dialnorm : -27
dialnorm/String : -27 dB
compr : -0.28
compr/String : -0.28 dB
dynrng : -4.30
dynrng/String : -4.30 dB
bsid : 8
dialnorm_Average : -27
dialnorm_Average/String : -27 dB
dialnorm_Minimum : -27
dialnorm_Minimum/String : -27 dB
dialnorm_Maximum : -27
dialnorm_Maximum/String : -27 dB
dialnorm_Count : 582
compr_Average : 0.72
compr_Average/String : 0.72 dB
compr_Minimum : -11.02
compr_Minimum/String : -11.02 dB
compr_Maximum : 5.46
compr_Maximum/String : 5.46 dB
compr_Count : 582
dynrng_Average : 10.78
dynrng_Average/String : 10.78 dB
dynrng_Minimum : -23.55
dynrng_Minimum/String : -23.55 dB
dynrng_Maximum : 23.37
dynrng_Maximum/String : 23.37 dB
dynrng_Count : 582
Оригинал : 00000.m2ts
Аудио #9
Идентификатор : 4360 (0x1108)
Идентификатор меню : 1 (0x1)
Формат : AC-3
Формат/Информация : Audio Coding 3
Расширение режима : CM (complete main)
Параметр Endianness формата : Big
Идентификатор кодека : 129
Продолжительность : 1 ч. 48 м.
Вид битрейта : Постоянный
Битрейт : 192 Кбит/сек
Каналы : 2 канала
Расположение каналов : Front: L R
Частота : 48,0 КГц
Битовая глубина : 16 бит
Метод сжатия : С потерями
Размер потока : 149 Мбайт (1%)
Язык : Ukrainian / Ukrainian
dsurmod : 0
dialnorm : -27
dialnorm/String : -27 dB
compr : -0.28
compr/String : -0.28 dB
dynrng : -4.30
dynrng/String : -4.30 dB
bsid : 8
dialnorm_Average : -27
dialnorm_Average/String : -27 dB
dialnorm_Minimum : -27
dialnorm_Minimum/String : -27 dB
dialnorm_Maximum : -27
dialnorm_Maximum/String : -27 dB
dialnorm_Count : 582
compr_Average : 2.10
compr_Average/String : 2.10 dB
compr_Minimum : -9.27
compr_Minimum/String : -9.27 dB
compr_Maximum : 5.74
compr_Maximum/String : 5.74 dB
compr_Count : 582
dynrng_Average : 10.07
dynrng_Average/String : 10.07 dB
dynrng_Minimum : -23.55
dynrng_Minimum/String : -23.55 dB
dynrng_Maximum : 23.52
dynrng_Maximum/String : 23.52 dB
dynrng_Count : 582
Оригинал : 00000.m2ts
Аудио #10
Идентификатор : 4361 (0x1109)
Идентификатор меню : 1 (0x1)
Формат : DTS
Формат/Информация : Digital Theater Systems
Профиль формата : MA / Core
Режим : 16
Параметр Endianness формата : Big
Режим смешивания : Stream extension
Идентификатор кодека : 134
Продолжительность : 1 ч. 48 м.
Вид битрейта : Переменный
Битрейт : Неизвестно / 1509 Кбит/сек
Каналы : 2 канала
Расположение каналов : Front: L R
Частота : 48,0 КГц
Битовая глубина : 16 бит
Метод сжатия : Без потерь / Lossy
Язык : English / English
Оригинал : 00000.m2ts
Текст #1
Идентификатор : 4608 (0x1200)
Идентификатор меню : 1 (0x1)
Формат : PGS
Идентификатор кодека : 144
Продолжительность : 1 ч. 48 м.
Язык : Russian / Russian
Оригинал : 00000.m2ts
Текст #2
Идентификатор : 4609 (0x1201)
Идентификатор меню : 1 (0x1)
Формат : PGS
Идентификатор кодека : 144
Продолжительность : 1 ч. 48 м.
Язык : English / English
Оригинал : 00000.m2ts
Меню
00:00:00.000 : Chapter 1
00:07:36.289 : Chapter 2
00:20:42.199 : Chapter 3
00:36:27.893 : Chapter 4
00:51:08.982 : Chapter 5
01:05:39.352 : Chapter 6
01:22:36.451 : Chapter 7
01:34:08.768 : Chapter 8

Скрипт AVISynth

LoadPlugin("C:\Program Files New\ffms-2.17\ffms2.dll") # подключение декодера
FFVideoSource("D:\FX1\00000.mkv") #открытие видео
LoadPlugin("C:\Program Files\AutoYUY2\AutoYUY2.dll") #подключение плагина
AutoYUY2() # конверсия цветового пространства
LoadPlugin("C:\Program Files\ColorMatrix\ColorMatrix.dll") #подключение плагина
ColorMatrix(mode="Rec.709->Rec.601", inputFR=false, clamp=0) # 16-235
#ColorMatrix(mode="Rec.709->Rec.601", inputFR=true, clamp=0) # 0-255
BicubicResize(720, 480, 0, 0.5) #ресайз методом Catmull-Rom spline
AssumeFPS ("ntsc_film") #изменение частоты кадров под стандарт NTSC

Скриншоты настроек RCC

Оттуда же все аудиодорожки. Перекодированы из DTS-HD MA с помощью UsEac3To v0.9.2 + ArcSoft Decoder, SoundForge Pro 10.0.

Скриншоты кодирования звука

Основа для меню и разбивка на чаптеры как в этом ДВД [url=viewtopic.php?t=3681047]http://rutracker.org/forum/viewtopic.php?t=3681047[/url] (спасибо Нордер). Проект предварительно собран в DVD Architect Pro 5.0, из него получены субтитры sup. Новый проект собран в MuxMan 1.4.4 и заменён в DVDReMake Pro 3.6.4.

Лог MuxMan

MuxMan version 1.4.4
new project database size 400, base 2720018.
new pointer management list size 50.
new clipboard database size 20, base 60d050.
Accepted audio D:\FX1\Potoki_new\1Pozitiv_192.ac3
Accepted audio D:\FX1\Potoki_new\2Zhivov_192.ac3
Accepted audio D:\FX1\Potoki_new\3Gorchakov_192.ac3
Accepted audio D:\FX1\Potoki_new\4English_192.ac3
19:30:09 Begin multiplex VTS01.
Title Segment List
Segment_1 non-seamless
Encoded stream 20 is script stream 1.
Encoded stream 21 is script stream 2.
Buffering audio track 1 file D:\FX1\Potoki_new\1Pozitiv_192.ac3.
Buffering audio track 2 file D:\FX1\Potoki_new\2Zhivov_192.ac3.
Buffering audio track 3 file D:\FX1\Potoki_new\3Gorchakov_192.ac3.
Buffering audio track 4 file D:\FX1\Potoki_new\4English_192.ac3.
Maximum audio duration 390632 fields.
Multiplex delay set to 25257.
Positioned D:\FX1\Potoki_new\scrypt_new.m2v to 00:00:00:00
Starting scene Segment_1_scn1 at 00:00:00:00
Starting scene Segment_1_scn2 at 00:07:25:10
Starting scene Segment_1_scn3 at 00:19:09:18, requested for 00:19:09:04
Starting scene Segment_1_scn4 at 00:25:42:02
Starting scene Segment_1_scn5 at 00:36:15:21
Starting scene Segment_1_scn6 at 00:43:49:27
Starting scene Segment_1_scn7 at 00:48:46:11
Starting scene Segment_1_scn8 at 00:50:37:22, requested for 00:50:37:08
Starting scene Segment_1_scn9 at 00:59:06:00
Starting scene Segment_1_scn10 at 01:04:28:27
Starting scene Segment_1_scn11 at 01:08:16:10
Starting scene Segment_1_scn12 at 01:17:03:18
Starting scene Segment_1_scn13 at 01:22:21:00
Starting scene Segment_1_scn14 at 01:26:02:05
Starting scene Segment_1_scn15 at 01:35:14:03, requested for 01:35:13:19
Starting scene Segment_1_scn16 at 01:43:56:17
SeqEnd at DF543E36.
Bytes remaining in buffer = 0.
Bitrate - avg: 5489341, min: 2487880 (lba 2179873), max: 10002442 (lba 1046577).
Shortest GOP has 2 fields, longest GOP has 30 fields.
Fields: 390585, VOBU: 12940, Sectors: 2183226.
19:39:07 Begin multiplex VMG.
19:39:07 End multiplex.

Скриншот финального проекта

Бонусы:
- US Theatrical Trailer (2:32)
Меню: статичное
Сэмпл: http://multi-up.com/1112358
Тип релиза: DVD5 (Custom)
Контейнер: DVD-Video
Видео: MPEG Video, NTSC, 720x480, VBR, 16:9, ~4450 Кбит/сек, 23,976 кадр/сек
Аудио: AC3, 2.0, 48,0 КГц, 192 Кбит/сек, stereo, русский - Позитив-Мультимедиа
Аудио 2: AC3, 2.0, 48,0 КГц, 192 Кбит/сек, stereo, русский - Живов
Аудио 3: AC3, 2.0, 48,0 КГц, 192 Кбит/сек, stereo, русский - Горчаков
Аудио 4: AC3, 2.0, 48,0 КГц, 192 Кбит/сек, stereo, english

MediaInfo

Общее
Полное имя : D:\Torrents\FX1 (BD - DVD5)\VIDEO_TS\VTS_01_1.VOB
Формат : MPEG-PS
Размер файла : 1024 Мбайт
Продолжительность : 26 м.
Режим общего битрейта : Переменный
Общий поток : 5324 Кбит/сек
Видео
Идентификатор : 224 (0xE0)
Формат : MPEG Video
Версия формата : Version 2
Профиль формата : Main@Main
Параметр BVOP формата : Да
Параметр матрицы формата : Выборочная
Параметр GOP формата : Variable
Продолжительность : 26 м.
Вид битрейта : Переменный
Битрейт : 4450 Кбит/сек
Максимальный битрейт : 8700 Кбит/сек
Ширина : 720 пикселей
Высота : 480 пикселей
Соотношение сторон : 16:9
Частота кадров : 23,976 кадра/сек
Стандарт вещания : NTSC
Цветовое пространство : YUV
Субдискретизация насыщенности : 4:2:0
Битовая глубина : 8 бит
Тип развёртки : Прогрессивная
Порядок развёртки : 2:3 Pulldown
Метод сжатия : С потерями
Бит/(Пиксели*Кадры) : 0.537
Размер потока : 856 Мбайт (84%)
Аудио #1
Идентификатор : 189 (0xBD)-128 (0x80)
Формат : AC-3
Формат/Информация : Audio Coding 3
Расширение режима : CM (complete main)
Параметр Endianness формата : Big
Режим смешивания : DVD-Video
Продолжительность : 26 м.
Вид битрейта : Постоянный
Битрейт : 192 Кбит/сек
Каналы : 2 канала
Расположение каналов : Front: L R
Частота : 48,0 КГц
Битовая глубина : 16 бит
Метод сжатия : С потерями
Размер потока : 36,9 Мбайт (4%)
Аудио #2
Идентификатор : 189 (0xBD)-129 (0x81)
Формат : AC-3
Формат/Информация : Audio Coding 3
Расширение режима : CM (complete main)
Параметр Endianness формата : Big
Режим смешивания : DVD-Video
Продолжительность : 26 м.
Вид битрейта : Постоянный
Битрейт : 192 Кбит/сек
Каналы : 2 канала
Расположение каналов : Front: L R
Частота : 48,0 КГц
Битовая глубина : 16 бит
Метод сжатия : С потерями
Размер потока : 36,9 Мбайт (4%)
Аудио #3
Идентификатор : 189 (0xBD)-130 (0x82)
Формат : AC-3
Формат/Информация : Audio Coding 3
Расширение режима : CM (complete main)
Параметр Endianness формата : Big
Режим смешивания : DVD-Video
Продолжительность : 26 м.
Вид битрейта : Постоянный
Битрейт : 192 Кбит/сек
Каналы : 2 канала
Расположение каналов : Front: L R
Частота : 48,0 КГц
Битовая глубина : 16 бит
Метод сжатия : С потерями
Размер потока : 36,9 Мбайт (4%)
Аудио #4
Идентификатор : 189 (0xBD)-131 (0x83)
Формат : AC-3
Формат/Информация : Audio Coding 3
Расширение режима : CM (complete main)
Параметр Endianness формата : Big
Режим смешивания : DVD-Video
Продолжительность : 26 м.
Вид битрейта : Постоянный
Битрейт : 192 Кбит/сек
Каналы : 2 канала
Расположение каналов : Front: L R
Частота : 48,0 КГц
Битовая глубина : 16 бит
Метод сжатия : С потерями
Размер потока : 36,9 Мбайт (4%)
Текст #1
Идентификатор : 189 (0xBD)-32 (0x20)
Формат : RLE
Формат/Информация : Run-length encoding
Режим смешивания : DVD-Video
Текст #2
Идентификатор : 189 (0xBD)-33 (0x21)
Формат : RLE
Формат/Информация : Run-length encoding
Режим смешивания : DVD-Video
Меню

DVDInfo

Title: FX1 (BD - DVD5)
Size: 4.25 Gb ( 4 456 756,00 KBytes ) - DVD-5
Enabled regions: 1, 2, 3, 4, 5, 6, 7, 8
VTS_01 :
Play Length: 01:48:29
Video: NTSC 16:9 (720x480) VBR, Auto Letterboxed
Audio:
Russian, AC3, 2/0 (L,R) ch, 192 kbps, Delay 0 mSec
Russian, AC3, 2/0 (L,R) ch, 192 kbps, Delay 0 mSec
Russian, AC3, 2/0 (L,R) ch, 192 kbps, Delay 0 mSec
English, AC3, 2/0 (L,R) ch, 192 kbps, Delay 0 mSec
Subtitles:
English
Russian
VTS_02 :
Play Length: 00:02:32
Video: NTSC 4:3 (720x480) VBR
Audio:
English, AC3, 2/0 (L,R) ch, 192 kbps, Delay 0 mSec
* Menus Information *
VIDEO_TS Menu
Video:
NTSC 4:3 (720x480) VBR
Auto Pan&Scan, Auto Letterboxed
English Language Unit :
Title Menu
VTS_01 Menu
Video:
NTSC 4:3 (720x480) VBR
Audio:
Not specified (LinearPCM, 2 ch)
English Language Unit :
Root Menu
Chapter (PTT) Menu
VTS_02 Menu
Video:
NTSC 4:3 (720x480) VBR
Auto Pan&Scan, Auto Letterboxed
English Language Unit :
Root Menu
Chapter (PTT) Menu

Скриншоты меню

Скриншоты

Скриншоты доп. материалов

Обзор других ДВД, имеющихся на трекере

[url=viewtopic.php?t=943145]http://rutracker.org/forum/viewtopic.php?t=943145[/url] - не скачать, никого на раздаче почти 2 месяца. Судя по всему 4:3 с полосами сверху и снизу.
[url=viewtopic.php?t=1394321]http://rutracker.org/forum/viewtopic.php?t=1394321[/url] - NTSC 4:3 с полосами сверху и снизу.
[url=viewtopic.php?t=1885447]http://rutracker.org/forum/viewtopic.php?t=1885447[/url] - NTSC 4:3 с полосами сверху и снизу.
[url=viewtopic.php?t=2419528]http://rutracker.org/forum/viewtopic.php?t=2419528[/url] - HDTVRip PAL 16:9. В комментариях - жалобы скачавших.
[url=viewtopic.php?t=3681047]http://rutracker.org/forum/viewtopic.php?t=3681047[/url] - единственная 9-ка, но опять же PAL 4:3 с полосами сверху и снизу.
[url=viewtopic.php?t=4693401]http://rutracker.org/forum/viewtopic.php?t=4693401[/url] - NTSC 4:3 с полосами сверху и снизу, да ещё и без меню.

_________________
Показать сообщения:    

Текущее время: Сегодня 21:21

Часовой пояс: GMT



Вы не можете начинать темы
Вы не можете отвечать на сообщения
Вы не можете редактировать свои сообщения
Вы не можете удалять свои сообщения
Вы не можете голосовать в опросах
Вы не можете прикреплять файлы к сообщениям
Вы не можете скачивать файлы